<?xml version="1.0" standalone="no"?>
<!DOCTYPE svg PUBLIC "-//W3C//DTD SVG 1.1//EN" "http://www.w3.org/Graphics/SVG/1.1/DTD/svg11.dtd" >
<svg>
<metadata>
Created by FontForge 20090914 at Wed Aug  1 21:19:17 2012
 By www-data
Digitized data copyright &#194;&#169; 2007, Google Corporation.
</metadata>
<defs>
<font id="DroidSerif-BoldItalic" horiz-adv-x="1145" >
  <font-face 
    font-family="Droid Serif"
    font-weight="700"
    font-style="italic"
    font-stretch="normal"
    units-per-em="2048"
    panose-1="2 2 8 0 6 5 0 9 2 0"
    ascent="1638"
    descent="-410"
    x-height="1098"
    cap-height="1462"
    bbox="-543 -492.004 2390 1907"
    underline-thickness="102"
    underline-position="-103"
    slope="-12"
    unicode-range="U+0020-U+2044"
  />
<missing-glyph horiz-adv-x="2048" 
 />
    <glyph glyph-name=".notdef" horiz-adv-x="2048" 
 />
    <glyph glyph-name="space" unicode=" " horiz-adv-x="532" 
 />
    <glyph glyph-name="exclam" unicode="!" horiz-adv-x="809" 
d="M430 1462h356l-354 -995h-119zM502 168c0 -34 -5.16602 -62.833 -15.499 -86.5s-24 -42.667 -41 -57s-36.167 -24.666 -57.5 -30.999s-42.666 -9.5 -63.999 -9.5c-50 0 -90.167 12 -120.5 36s-45.5 61 -45.5 111c0 28 4.16699 53.333 12.5 76s20.166 42 35.499 58
s34 28.333 56 37s46.667 13 74 13c23.333 0 45.166 -3 65.499 -9s38 -15 53 -27s26.667 -27.333 35 -46s12.5 -40.334 12.5 -65.001z" />
    <glyph glyph-name="quotedbl" unicode="&#x22;" horiz-adv-x="1040" 
d="M807 1462h319l-213 -563h-135zM360 1462h320l-234 -563h-135z" />
    <glyph glyph-name="numbersign" unicode="#" 
d="M1036 551l-14 -141h-256l-119 -410h-145l119 410h-213l-121 -410h-146l121 410h-205l15 141h231l111 371h-238l17 143h264l112 397h148l-115 -397h213l117 397h145l-116 -397h196l-16 -143h-223l-109 -371h227zM449 551h215l110 371h-215z" />
    <glyph glyph-name="dollar" unicode="$" 
d="M1030 481c0 -63.333 -11.501 -119.666 -34.501 -168.999s-56 -91.333 -99 -126s-95 -61.334 -156 -80.001s-129.5 -28.667 -205.5 -30l-50 -238h-114l51 240c-124.667 10 -217.667 39 -279 87s-92 110.333 -92 187c0 64.667 19.833 111.667 59.5 141
s95.834 44 168.501 44c0 -48 4 -90.333 12 -127s19.5 -68.334 34.5 -95.001s32.833 -48.667 53.5 -66s44 -30.666 70 -39.999l92 436c-48.667 26 -91.667 52.167 -129 78.5s-68.833 55 -94.5 86s-45 65 -58 102s-19.5 79.167 -19.5 126.5c0 56.667 11.167 107.5 33.5 152.5
s53.833 83.167 94.5 114.5s89.5 55.666 146.5 72.999s120.5 27 190.5 29l32 149h115l-35 -153c108 -8.66699 189 -31.334 243 -68.001s81 -83 81 -139c0 -28 -4 -53 -12 -75s-21 -40.667 -39 -56s-41.833 -27 -71.5 -35s-66.167 -12 -109.5 -12
c0 24.667 -2.33301 49.834 -7 75.501s-11.667 50.334 -21 74.001s-21.5 45 -36.5 64s-32.833 33.833 -53.5 44.5l-86 -404l47 -24c94 -49.333 163.833 -103.333 209.5 -162s68.5 -127 68.5 -205zM767.999 389c0 18.667 -1.66992 36.167 -5.00293 52.5
s-9.66602 32.166 -18.999 47.499s-22.166 31 -38.499 47s-37.166 32.667 -62.499 50l-84 -393c32 0.666992 60.833 5.83398 86.5 15.501s47.5 23.167 65.5 40.5s32 38 42 62s15 50 15 78zM503.996 1106c0 -39.333 8.16699 -72.001 24.5 -98.001s40.833 -50.667 73.5 -74
l76 356c-23.333 -3.33301 -45.5 -9.16602 -66.5 -17.499s-39.5 -20 -55.5 -35s-28.667 -33.333 -38 -55s-14 -47.167 -14 -76.5z" />
    <glyph glyph-name="percent" unicode="%" horiz-adv-x="1835" 
d="M526 0h-159l1015 1462h154zM147 872c0 42.667 3.99902 87.3291 11.999 133.996s20.5 92.667 37.5 138s38.167 88.5 63.5 129.5s55.5 77 90.5 108s74.667 55.667 119 74s93.833 27.5 148.5 27.5c52 0 96.667 -7.66699 134 -23s68 -36.666 92 -63.999
s41.833 -59.666 53.5 -96.999s17.5 -77.666 17.5 -120.999c0 -39.333 -4.16699 -81.666 -12.5 -126.999s-20.833 -90.333 -37.5 -135s-38 -87.667 -64 -129s-56.833 -77.833 -92.5 -109.5s-76.167 -57 -121.5 -76s-95.666 -28.5 -150.999 -28.5
c-44 0 -83.833 6.5 -119.5 19.5s-66 32.167 -91 57.5s-44.333 56.5 -58 93.5s-20.5 79.833 -20.5 128.5zM611.999 1376c-26.667 0 -51.166 -9.16895 -73.499 -27.502s-42.5 -42.166 -60.5 -71.499s-33.833 -62.666 -47.5 -99.999s-25 -75.333 -34 -114
s-15.833 -76.167 -20.5 -112.5s-7 -67.833 -7 -94.5c0 -54 6.66699 -97.167 20 -129.5s36.666 -48.5 69.999 -48.5c26.667 0 51.167 9.16699 73.5 27.5s42.5 42.166 60.5 71.499s33.833 62.833 47.5 100.5s25 75.834 34 114.501s15.833 76.167 20.5 112.5s7 68.166 7 95.499
c0 54.667 -6.5 97.334 -19.5 128.001s-36.5 46.667 -70.5 48zM997 278.993c0 42.667 3.99902 87.3301 11.999 133.997s20.5 92.667 37.5 138s38.167 88.333 63.5 129s55.5 76.5 90.5 107.5s74.667 55.667 119 74s93.833 27.5 148.5 27.5c52 0 96.667 -7.66699 134 -23
s68 -36.666 92 -63.999s41.833 -59.666 53.5 -96.999s17.5 -77.666 17.5 -120.999c0 -39.333 -4.16699 -81.5 -12.5 -126.5s-20.833 -90 -37.5 -135s-38 -88 -64 -129s-56.833 -77.333 -92.5 -109s-76.167 -57 -121.5 -76s-95.666 -28.5 -150.999 -28.5
c-44 0 -83.833 6.5 -119.5 19.5s-66 32 -91 57s-44.333 56.167 -58 93.5s-20.5 80.333 -20.5 129zM1462 781.989c-26.667 0 -51.166 -9.16895 -73.499 -27.502s-42.5 -42.166 -60.5 -71.499s-33.833 -62.666 -47.5 -99.999s-25 -75.333 -34 -114
s-15.833 -76.167 -20.5 -112.5s-7 -67.833 -7 -94.5c0 -54 6.66699 -97.167 20 -129.5s36.666 -48.5 69.999 -48.5c26.667 0 51.167 9.16699 73.5 27.5s42.5 42.166 60.5 71.499s33.833 62.833 47.5 100.5s25 75.834 34 114.501s15.833 76.167 20.5 112.5s7 68.166 7 95.499
c0 54.667 -6.5 97.334 -19.5 128.001s-36.5 46.667 -70.5 48z" />
    <glyph glyph-name="ampersand" unicode="&#x26;" horiz-adv-x="1640" 
d="M1110 0l-101.999 141.001c-56.667 -48 -122.5 -86.833 -197.5 -116.5s-162.167 -44.5 -261.5 -44.5c-82.667 0 -154 9.66699 -214 29s-109.667 46.333 -149 81s-68.5 75.334 -87.5 122.001s-28.5 97.667 -28.5 153c0 68 12 126.167 36 174.5s56.333 90.166 97 125.499
s88 65.666 142 90.999s111 49 171 71c-30.667 52.667 -54.334 104.334 -71.001 155.001s-25 100 -25 148c0 58.667 10.333 110 31 154s50.5 80.667 89.5 110s87 51.5 144 66.5s121.833 22.5 194.5 22.5c62.667 0 116.834 -6.83301 162.501 -20.5s83.5 -32.5 113.5 -56.5
s52.167 -52.167 66.5 -84.5s21.5 -67.166 21.5 -104.499c0 -47.333 -7 -88.833 -21 -124.5s-36.833 -68.5 -68.5 -98.5s-72.834 -58.5 -123.501 -85.5s-112.667 -55.5 -186 -85.5l252 -331c23.333 49.333 43.333 99.666 60 150.999s30 102 40 152l16 77h410l-23 -108h-18
c-23.333 0 -46 -1.33301 -68 -4s-43.5 -8.83398 -64.5 -18.501s-40.833 -23.5 -59.5 -41.5s-36 -42.333 -52 -73l-65.5 -127.5c-23 -45 -49.5 -90.833 -79.5 -137.5l129 -169c20.667 -28 46.5 -49 77.5 -63s68.5 -21 112.5 -21h15l-23 -109h-393zM371.001 381.001
c0 -38 5.33203 -73.168 15.999 -105.501s26.334 -60.166 47.001 -83.499s46 -41.666 76 -54.999s64 -20 102 -20c64 0 122.167 12.167 174.5 36.5s99.5 57.166 141.5 98.499l-334 463c-40.667 -22.667 -75.167 -46 -103.5 -70s-51.333 -49.5 -69 -76.5s-30.5 -56 -38.5 -87
s-12 -64.5 -12 -100.5zM1010 1188c0 54 -12.1689 96.166 -36.502 126.499s-60.833 45.5 -109.5 45.5c-24 0 -46.333 -4.66699 -67 -14s-38.5 -23 -53.5 -41s-26.667 -40.333 -35 -67s-12.5 -57 -12.5 -91c0 -39.333 6.66699 -76.666 20 -111.999s33.333 -73 60 -113
c42 18 77.833 36 107.5 54s53.834 37.333 72.501 58s32.334 43.5 41.001 68.5s13 53.5 13 85.5z" />
    <glyph glyph-name="quotesingle" unicode="'" horiz-adv-x="594" 
d="M340 1462h319l-213 -563h-135z" />
    <glyph glyph-name="parenleft" unicode="(" horiz-adv-x="819" 
d="M401 285c0 -42 2.99805 -84 8.99805 -126s16 -82.167 30 -120.5s32.5 -74 55.5 -107s51.167 -61.5 84.5 -85.5l-27 -131c-82.667 28.667 -153.5 65.667 -212.5 111s-107.333 96.833 -145 154.5s-65.334 120.334 -83.001 188.001s-26.5 138.5 -26.5 212.5
c0 84.667 7.83301 170 23.5 256s39.167 169.667 70.5 251s70.666 159 117.999 233s102.833 141.333 166.5 202s135.334 113.167 215.001 157.5s167.834 77.833 264.501 100.5l-20 -129c-51.333 -28 -97.166 -60.333 -137.499 -97s-76.166 -75.667 -107.499 -117
s-58.666 -84.333 -81.999 -129s-43.5 -89 -60.5 -133s-31.333 -86.667 -43 -128s-21.834 -79.666 -30.501 -114.999c-25.333 -102.667 -42 -190.834 -50 -264.501s-12 -134.834 -12 -183.501z" />
    <glyph glyph-name="parenright" unicode=")" horiz-adv-x="819" 
d="M453 1014c0 42 -2.99805 84.0029 -8.99805 126.003s-16 82 -30 120s-32.5 73.5 -55.5 106.5s-51.167 61.5 -84.5 85.5l27 131c82.667 -28.667 153.5 -65.667 212.5 -111s107.333 -96.833 145 -154.5s65.334 -120.334 83.001 -188.001s26.5 -138.167 26.5 -211.5
c0 -84.667 -7.83301 -170 -23.5 -256s-39.167 -169.667 -70.5 -251s-70.666 -159 -117.999 -233s-102.833 -141.333 -166.5 -202s-135.334 -113.334 -215.001 -158.001s-167.834 -79 -264.501 -103l20 131c51.333 28 97.166 60.333 137.499 97s76.166 75.667 107.499 117
s58.666 84.333 81.999 129s43.5 89 60.5 133s31.333 86.667 43 128s21.834 79.666 30.501 114.999c25.333 103.333 42 191.5 50 264.5s12 134.5 12 184.5z" />
    <glyph glyph-name="asterisk" unicode="*" horiz-adv-x="1266" 
d="M295 1323l133 184l252 -280l4 340l225 -47l-141 -308l344 146l47 -219l-328 -13l295 -147l-133 -178l-256 272l2 -340l-223 47l135 314l-342 -150l-49 217l330 17z" />
    <glyph glyph-name="plus" unicode="+" 
d="M678 659v-366h-148v366h-364v146h364v366h148v-366h366v-146h-366z" />
    <glyph glyph-name="comma" unicode="," horiz-adv-x="602" 
d="M428 127c0 -52 -9.49805 -101.33 -28.498 -147.997s-47.333 -89 -85 -127s-84.667 -70.833 -141 -98.5s-121.833 -48.5 -196.5 -62.5l23 108c140.667 33.333 211 90 211 170c0 14 -2.83301 26.167 -8.5 36.5s-12.834 19.666 -21.501 27.999s-17.834 16.5 -27.501 24.5
s-18.834 17.167 -27.501 27.5s-15.834 22.333 -21.501 36s-8.5 30.5 -8.5 50.5c0 22 4.16699 41.667 12.5 59s19.5 32.166 33.5 44.499s30.333 21.666 49 27.999s38.334 9.5 59.001 9.5c24.667 0 47.834 -4.16699 69.501 -12.5s40.5 -20.333 56.5 -36s28.667 -35 38 -58
s14 -49.5 14 -79.5z" />
    <glyph glyph-name="hyphen" unicode="-" horiz-adv-x="635" 
d="M20 451l48 215h532l-47 -215h-533z" />
    <glyph glyph-name="period" unicode="." horiz-adv-x="623" 
d="M434 168c0 -34 -5.16797 -62.833 -15.501 -86.5s-24 -42.667 -41 -57s-36.167 -24.666 -57.5 -30.999s-42.666 -9.5 -63.999 -9.5c-49.333 0 -89.333 12 -120 36s-46 61 -46 111c0 28 4.16699 53.333 12.5 76s20.333 42 36 58s34.334 28.333 56.001 37s46.167 13 73.5 13
c23.333 0 45.166 -3 65.499 -9s38 -15 53 -27s26.667 -27.333 35 -46s12.5 -40.334 12.5 -65.001z" />
    <glyph glyph-name="slash" unicode="/" horiz-adv-x="590" 
d="M-51 -248h-160l873 1804h159z" />
    <glyph glyph-name="zero" unicode="0" 
d="M76 473c0 70.667 5.82617 144.666 17.4932 221.999s29.334 153.5 53.001 228.5s53.5 146.5 89.5 214.5s78.5 127.667 127.5 179s104.5 92.166 166.5 122.499s131 45.5 207 45.5c58.667 0 113.334 -9.16699 164.001 -27.5s94.834 -46.666 132.501 -84.999
s67.334 -87 89.001 -146s32.5 -129.167 32.5 -210.5c0 -68.667 -5.66699 -142.167 -17 -220.5s-28.5 -156 -51.5 -233s-52.167 -150.833 -87.5 -221.5s-77.166 -133 -125.499 -187s-103.5 -97 -165.5 -129s-130.667 -48 -206 -48c-63.333 0 -121.166 10.667 -173.499 32
s-97.166 53 -134.499 95s-66.333 93.833 -87 155.5s-31 132.834 -31 213.501zM355.993 384.999c0 -91.333 14.332 -158.835 42.999 -202.502s67 -65.5 115 -65.5c40 0 77 15.833 111 47.5s64.667 73.834 92 126.501s51.5 112.667 72.5 180s38.5 136.833 52.5 208.5
s24.667 142.5 32 212.5s11 133.667 11 191c0 90 -13.833 156.667 -41.5 200s-66.5 65 -116.5 65c-38.667 0 -74.667 -15.667 -108 -47s-63.666 -73 -90.999 -125s-51.666 -111.667 -72.999 -179s-39.333 -136.666 -54 -207.999s-25.834 -142 -33.501 -212
s-11.5 -134 -11.5 -192z" />
    <glyph glyph-name="one" unicode="1" 
d="M969 1470l-260.001 -1222l-8 -36c-3.33301 -15.333 -5 -27.333 -5 -36c0 -14.667 3.83301 -26.5 11.5 -35.5s18.5 -15.833 32.5 -20.5s30.333 -7.66699 49 -9s39 -2 61 -2h100l-22 -109h-846l22 109h121c48.667 0 88 9.83301 118 29.5s50 54.167 60 103.5l158 745
c8.66699 41.333 17 79 25 113s15.333 63.667 22 89c7.33301 29.333 14.333 55.666 21 78.999h-8l-88.5 -89.5c-27 -26.333 -52.167 -48.666 -75.5 -66.999s-45.833 -32.333 -67.5 -42s-43.5 -14.5 -65.5 -14.5c-29.333 0 -53.166 13.167 -71.499 39.5
s-27.5 63.5 -27.5 111.5c23.333 6 47.333 13 72 21s51 18 79 30s58.167 26.5 90.5 43.5s67.833 38.167 106.5 63.5l166 106h230z" />
    <glyph glyph-name="two" unicode="2" 
d="M-29 0l42.999 210.997l478 403c69.333 58.667 126.333 112.334 171 161.001s80 94.5 106 137.5s44 84.667 54 125s15 82.166 15 125.499c0 28 -3.16699 53.833 -9.5 77.5s-15.666 44 -27.999 61s-27.5 30.333 -45.5 40s-38.333 14.5 -61 14.5c-34 0 -64.167 -9 -90.5 -27
s-48.833 -42.5 -67.5 -73.5s-33.5 -67.5 -44.5 -109.5s-17.833 -87.333 -20.5 -136c-34 0 -65.333 3.5 -94 10.5s-53.5 17.667 -74.5 32s-37.333 32.666 -49 54.999s-17.5 48.5 -17.5 78.5c0 40.667 10.5 79 31.5 115s51.667 67.5 92 94.5s90.333 48.333 150 64
s128.167 23.5 205.5 23.5c70 0 132 -6.66699 186 -20s99.333 -32.166 136 -56.499s64.5 -54.166 83.5 -89.499s28.5 -75 28.5 -119c0 -45.333 -9.33301 -89.833 -28 -133.5s-46.5 -88.5 -83.5 -134.5s-83.167 -94.167 -138.5 -144.5s-119.333 -105.166 -192 -164.499
l-492 -396h477c32.667 0 60.5 4.83301 83.5 14.5s42.5 22.334 58.5 38.001s29.5 33.5 40.5 53.5s21.167 40.667 30.5 62l15 37h120l-100 -430h-969z" />
    <glyph glyph-name="three" unicode="3" 
d="M457 125c34 0 67.001 6.66016 99.001 19.9932s60.333 33.5 85 60.5s44.5 60.5 59.5 100.5s22.5 86.667 22.5 140c0 78.667 -25.333 139.334 -76 182.001s-121.667 64 -213 64h-88l21 127h65c57.333 0 110.333 8.66699 159 26s90.834 42 126.501 74s63.5 70.333 83.5 115
s30 94 30 148c0 25.333 -2.83301 48.833 -8.5 70.5s-14.167 40.334 -25.5 56.001s-25.833 27.834 -43.5 36.501s-38.834 13 -63.501 13c-37.333 0 -69.166 -8.33301 -95.499 -25s-48.5 -39 -66.5 -67s-32.667 -60.5 -44 -97.5s-20.333 -75.5 -27 -115.5
c-32.667 0 -63.167 2.16699 -91.5 6.5s-52.833 11.5 -73.5 21.5s-37 23.333 -49 40s-18 37.667 -18 63c0 42 13.167 81.167 39.5 117.5s62.166 68 107.499 95s98.5 48.167 159.5 63.5s126.167 23 195.5 23c62.667 0 119.834 -6.5 171.501 -19.5s96 -32 133 -57
s65.5 -55.667 85.5 -92s30 -77.833 30 -124.5c0 -48 -8.5 -95 -25.5 -141s-42.667 -88.167 -77 -126.5s-77.333 -71.666 -129 -99.999s-111.834 -48.5 -180.501 -60.5c47.333 -5.33301 90 -15.666 128 -30.999s70.167 -35.666 96.5 -60.999s46.666 -55.5 60.999 -90.5
s21.5 -74.5 21.5 -118.5c0 -60.667 -8.66699 -114.667 -26 -162s-41 -88.666 -71 -123.999s-65 -65.5 -105 -90.5s-82.667 -45.167 -128 -60.5s-92.166 -26.5 -140.499 -33.5s-95.5 -10.5 -141.5 -10.5c-80 0 -147.5 7.5 -202.5 22.5s-99.5 34.333 -133.5 58
s-58.5 50.167 -73.5 79.5s-22.5 58.333 -22.5 87c0 54 19.833 96.5 59.5 127.5s94.834 46.5 165.501 46.5c0 -40 4.66699 -76.833 14 -110.5s23.666 -62.667 42.999 -87s43.666 -43.5 72.999 -57.5s64 -21 104 -21z" />
    <glyph glyph-name="four" unicode="4" 
d="M674 874c5.33301 27.333 11.668 57.166 19.001 89.499l23.5 100.5c8.33301 34.667 17.166 69.334 26.499 104.001s19 68 29 100c-14.667 -23.333 -31.667 -49 -51 -77l-59.5 -84.5l-59.5 -80.5l-51 -65l-363 -445h410zM264.002 0l20.998 108.999h59
c20 0 40.333 1.16699 61 3.5s40 8.33301 58 18s34 24.334 48 44.001s24.667 46.834 32 81.501l26 125h-569l29 127l784 954h287l-203 -946h213l-29 -135h-213l-26 -127c-2 -8 -3.83301 -19 -5.5 -33s-2.5 -24.333 -2.5 -31c0 -17.333 3.16699 -31.333 9.5 -42
s15.333 -18.834 27 -24.501s25.834 -9.5 42.501 -11.5s35.334 -3 56.001 -3h37l-23 -109h-719z" />
    <glyph glyph-name="five" unicode="5" 
d="M434 123c44.667 0 85.1709 7.66602 121.504 22.999s67.333 38.333 93 69s45.5 69.167 59.5 115.5s21 100.166 21 161.499c0 44 -6.33301 82.333 -19 115s-30 60 -52 82s-48.167 38.333 -78.5 49s-63.166 16 -98.499 16c-24.667 0 -47 -1.33301 -67 -4
s-38.333 -6.16699 -55 -10.5s-32.334 -9.16602 -47.001 -14.499l-42 -16l-86 43l209 710h774l-59 -372h-125c1.33301 17.333 2.66602 35.833 3.99902 55.5s2 33.834 2 42.501c0 15.333 -7 27.666 -21 36.999s-40.333 14 -79 14h-412l-121 -383
c25.333 7.33301 54.666 14.666 87.999 21.999s75 11 125 11c70.667 0 134.667 -8.33301 192 -25s106.166 -41.167 146.499 -73.5s71.5 -72.333 93.5 -120s33 -102.5 33 -164.5c0 -74.667 -14.333 -144.167 -43 -208.5s-69.834 -120 -123.501 -167
s-119.167 -83.833 -196.5 -110.5s-165 -40 -263 -40c-71.333 0 -131.666 6.33301 -180.999 19s-89.333 29.834 -120 51.501s-52.834 47 -66.501 76s-20.5 59.833 -20.5 92.5c0 22.667 3.83301 43.834 11.5 63.501s19.334 37 35.001 52s35.5 26.833 59.5 35.5
s52.333 13 85 13c0.666992 -29.333 4.16699 -59.333 10.5 -90s17.666 -58.667 33.999 -84s38.833 -46 67.5 -62s65.667 -24 111 -24z" />
    <glyph glyph-name="six" unicode="6" 
d="M829 1362c-88 0 -164.999 -46.832 -230.999 -140.499s-120 -235.834 -162 -426.501c15.333 12 33 24 53 36s42.5 22.833 67.5 32.5s52.333 17.667 82 24s61.834 9.5 96.501 9.5c59.333 0 110.833 -9.66699 154.5 -29s79.667 -45.5 108 -78.5s49.333 -71.5 63 -115.5
s20.5 -90.333 20.5 -139c0 -72 -11.167 -141.333 -33.5 -208s-56.333 -125.667 -102 -177s-103 -92.5 -172 -123.5s-150.167 -46.5 -243.5 -46.5c-58.667 0 -113.834 10.167 -165.501 30.5s-96.834 51.166 -135.501 92.499s-69.167 92.833 -91.5 154.5
s-33.5 134.167 -33.5 217.5c0 85.333 7.83301 169.333 23.5 252s38.667 161.334 69 236.001s67.5 143.667 111.5 207s94.167 118.333 150.5 165s118.666 83 186.999 109s141.833 39 220.5 39c56 0 105.167 -5.66699 147.5 -17s77.833 -26.833 106.5 -46.5
s50.167 -42.167 64.5 -67.5s21.5 -52 21.5 -80c0 -54.667 -22.333 -97.334 -67 -128.001s-107.667 -46 -189 -46c0 33.333 -1.16699 65.833 -3.5 97.5s-7.66602 59.834 -15.999 84.501s-20.5 44.5 -36.5 59.5s-37.667 22.5 -65 22.5zM641.001 772.001
c-22 0 -43.834 -3.16602 -65.501 -9.49902s-42.5 -14.5 -62.5 -24.5s-38.667 -21.333 -56 -34s-33 -25.334 -47 -38.001c-16.667 -99.333 -25 -184.666 -25 -255.999c0 -103.333 15.667 -178.666 47 -225.999s73.666 -71 126.999 -71c34.667 0 66.334 10.333 95.001 31
s53.334 49.167 74.001 85.5s36.667 79.166 48 128.499s17 102.666 17 159.999c0 82.667 -12.833 145.667 -38.5 189s-63.5 65 -113.5 65z" />
    <glyph glyph-name="seven" unicode="7" 
d="M213 0l809 1239h-526c-37.333 0 -68 -8.83301 -92 -26.5s-40.667 -43.5 -50 -77.5l-28 -103h-125l84 430h977l-23 -121l-852 -1341h-174z" />
    <glyph glyph-name="eight" unicode="8" 
d="M506 -20c-72 0 -137.335 8.67188 -196.002 26.0049s-109 41.666 -151 72.999s-74.5 68.5 -97.5 111.5s-34.5 90.167 -34.5 141.5c0 57.333 10.333 106.666 31 147.999s49 77.666 85 108.999s78.5 59 127.5 83s102.167 47 159.5 69c-29.333 22 -56 46.5 -80 73.5
s-44.667 55.833 -62 86.5s-30.833 63 -40.5 97s-14.5 69.333 -14.5 106c0 51.333 9.5 100 28.5 146s49.333 86.167 91 120.5s95.334 61.666 161.001 81.999s145.167 30.5 238.5 30.5c64.667 0 122.334 -7.5 173.001 -22.5s93.5 -35.833 128.5 -62.5
s61.667 -58.334 80 -95.001s27.5 -76.334 27.5 -119.001c0 -52 -8.33301 -97.833 -25 -137.5s-40.167 -75.167 -70.5 -106.5s-66.666 -59.5 -108.999 -84.5s-88.833 -48.833 -139.5 -71.5c35.333 -22.667 68.166 -46.834 98.499 -72.501s56.5 -53.667 78.5 -84
s39.333 -63.166 52 -98.499s19 -73.666 19 -114.999c0 -74.667 -13.667 -139.334 -41 -194.001s-65.833 -99.667 -115.5 -135s-108.667 -61.666 -177 -78.999s-143.5 -26 -225.5 -26zM521.998 98.0049c36 0 69.999 5.33301 101.999 16s60 26.834 84 48.501s43 48.5 57 80.5
s21 69.667 21 113c0 33.333 -5 64 -15 92s-24.667 54.5 -44 79.5s-43.5 48.667 -72.5 71s-62.833 44.166 -101.5 65.499c-78 -32 -139.167 -75.667 -183.5 -131s-66.5 -125 -66.5 -209c0 -70.667 19.333 -126 58 -166s92.334 -60 161.001 -60zM902.997 1169
c0 28 -3.16797 53.835 -9.50098 77.502s-16.166 44.167 -29.499 61.5s-30.166 31 -50.499 41s-44.5 15 -72.5 15c-32 0 -61.667 -5.83301 -89 -17.5s-51 -28.334 -71 -50.001s-35.833 -47.834 -47.5 -78.501s-17.5 -65.334 -17.5 -104.001
c0 -106.667 58 -195.334 174 -266.001c39.333 20.667 72.666 42.834 99.999 66.501s49.333 48.834 66 75.501s28.667 55 36 85s11 61.333 11 94z" />
    <glyph glyph-name="nine" unicode="9" 
d="M391 109c50 0 95.1621 13 135.495 39s77.333 64 111 114s64.5 111.833 92.5 185.5s55 158.5 81 254.5c-17.333 -18 -36.666 -35.333 -57.999 -52s-44.666 -31.5 -69.999 -44.5s-53 -23.333 -83 -31s-62.667 -11.5 -98 -11.5c-54.667 0 -103.334 8.5 -146.001 25.5
s-78.5 40.5 -107.5 70.5s-51 65.833 -66 107.5s-22.5 87.167 -22.5 136.5c0 85.333 15.5 163.666 46.5 234.999s72.833 132.5 125.5 183.5s113.834 90.667 183.501 119s143.5 42.5 221.5 42.5c61.333 0 116.833 -9 166.5 -27s92 -44.167 127 -78.5s61.833 -76.5 80.5 -126.5
s28 -107.333 28 -172c0 -16 -0.666992 -36 -2 -60s-3.5 -50 -6.5 -78s-7 -57.5 -12 -88.5s-11.167 -61.833 -18.5 -92.5c-14.667 -66 -33.167 -131 -55.5 -195s-49 -124.833 -80 -182.5s-66.333 -111.167 -106 -160.5s-84.167 -91.833 -133.5 -127.5
s-103.5 -63.667 -162.5 -84s-123.5 -30.5 -193.5 -30.5c-54.667 0 -101.667 5.66699 -141 17s-71.666 26.5 -96.999 45.5s-44 41.167 -56 66.5s-18 52.333 -18 81c0 46 14.167 81.167 42.5 105.5s67.5 36.5 117.5 36.5c0.666992 -26 4.33398 -52.333 11.001 -79
s17 -50.667 31 -72s31.833 -38.666 53.5 -51.999s47.834 -20 78.501 -20zM605.995 711c26.667 0.666992 51.4971 5.66895 74.4971 15.002s44.333 21.5 64 36.5s37.5 31.833 53.5 50.5s30 37.667 42 57c4 16.667 7.83301 35 11.5 55s6.83398 40 9.50098 60
s4.83398 39.333 6.50098 58s2.5 35 2.5 49c0 44.667 -3.66699 83.167 -11 115.5s-17.833 58.666 -31.5 78.999s-29.667 35.333 -48 45s-38.5 14.5 -60.5 14.5c-38.667 0 -74.167 -12.667 -106.5 -38s-60.166 -58.5 -83.499 -99.5s-41.5 -87.333 -54.5 -139
s-19.5 -103.834 -19.5 -156.501c0 -66.667 13.667 -117 41 -151s64 -51 110 -51z" />
    <glyph glyph-name="colon" unicode=":" horiz-adv-x="733" 
d="M434 168c0 -34 -5.16797 -62.833 -15.501 -86.5s-24 -42.667 -41 -57s-36.167 -24.666 -57.5 -30.999s-42.666 -9.5 -63.999 -9.5c-49.333 0 -89.333 12 -120 36s-46 61 -46 111c0 28 4.16699 53.333 12.5 76s20.333 42 36 58s34.334 28.333 56.001 37s46.167 13 73.5 13
c23.333 0 45.166 -3 65.499 -9s38 -15 53 -27s26.667 -27.333 35 -46s12.5 -40.334 12.5 -65.001zM613.999 961c0 -34.667 -5.16699 -63.833 -15.5 -87.5s-24 -42.667 -41 -57s-36.167 -24.666 -57.5 -30.999s-42.666 -9.5 -63.999 -9.5c-49.333 0 -89.333 12 -120 36
s-46 61.333 -46 112c0 27.333 4.16699 52.333 12.5 75s20.333 42 36 58s34.5 28.5 56.5 37.5s46.667 13.5 74 13.5c23.333 0 45.166 -3 65.499 -9s37.833 -15 52.5 -27s26.167 -27.333 34.5 -46s12.5 -40.334 12.5 -65.001z" />
    <glyph glyph-name="semicolon" unicode=";" horiz-adv-x="733" 
d="M428 127c0 -52 -9.49805 -101.33 -28.498 -147.997s-47.333 -89 -85 -127s-84.667 -70.833 -141 -98.5s-121.833 -48.5 -196.5 -62.5l23 108c140.667 33.333 211 90 211 170c0 14 -2.83301 26.167 -8.5 36.5s-12.834 19.666 -21.501 27.999s-17.834 16.5 -27.501 24.5
s-18.834 17.167 -27.501 27.5s-15.834 22.333 -21.501 36s-8.5 30.5 -8.5 50.5c0 22 4.16699 41.667 12.5 59s19.5 32.166 33.5 44.499s30.333 21.666 49 27.999s38.334 9.5 59.001 9.5c24.667 0 47.834 -4.16699 69.501 -12.5s40.5 -20.333 56.5 -36s28.667 -35 38 -58
s14 -49.5 14 -79.5zM614.002 961.003c0 -34.667 -5.16699 -63.833 -15.5 -87.5s-24 -42.667 -41 -57s-36.167 -24.666 -57.5 -30.999s-42.666 -9.5 -63.999 -9.5c-49.333 0 -89.333 12 -120 36s-46 61.333 -46 112c0 27.333 4.16699 52.333 12.5 75s20.333 42 36 58
s34.5 28.5 56.5 37.5s46.667 13.5 74 13.5c23.333 0 45.166 -3 65.499 -9s37.833 -15 52.5 -27s26.167 -27.333 34.5 -46s12.5 -40.334 12.5 -65.001z" />
    <glyph glyph-name="less" unicode="&#x3c;" 
d="M166 690v84l878 479v-161l-659 -361l659 -356v-162z" />
    <glyph glyph-name="equal" unicode="=" 
d="M1053 604v-143h-887v143h887zM1053 1001v-143h-887v143h887z" />
    <glyph glyph-name="greater" unicode="&#x3e;" 
d="M166 213v162l659 356l-659 361v161l878 -479v-84z" />
    <glyph glyph-name="question" unicode="?" horiz-adv-x="1096" 
d="M1122 1143c0 -59.333 -13 -113.498 -39 -162.498s-61.667 -93.667 -107 -134s-99.166 -76.833 -161.499 -109.5s-129.833 -62 -202.5 -88l-73 -182h-131l-5 254c60.667 22 115.5 46.167 164.5 72.5s91 56.333 126 90s62 72 81 115s28.5 92.5 28.5 148.5
c0 34 -3.83301 64 -11.5 90s-18 48 -31 66s-28.667 31.667 -47 41s-37.833 14 -58.5 14c-32 0 -59.5 -8.33301 -82.5 -25s-42.167 -38.834 -57.5 -66.501s-27.333 -59.5 -36 -95.5s-15.334 -73.333 -20.001 -112c-168 0 -252 52.667 -252 158c0 36.667 11 71.167 33 103.5
s53.5 60.5 94.5 84.5s90.667 43 149 57s123.833 21 196.5 21c68 0 129.333 -6.66699 184 -20s101 -34 139 -62s67.333 -63.333 88 -106s31 -93.334 31 -152.001zM602 168.002c0 -34 -5.16797 -62.833 -15.501 -86.5s-24 -42.667 -41 -57s-36.167 -24.666 -57.5 -30.999
s-42.666 -9.5 -63.999 -9.5c-49.333 0 -89.333 12 -120 36s-46 61 -46 111c0 28 4.16699 53.333 12.5 76s20.333 42 36 58s34.334 28.333 56.001 37s46.167 13 73.5 13c23.333 0 45.166 -3 65.499 -9s38 -15 53 -27s26.667 -27.333 35 -46s12.5 -40.334 12.5 -65.001z" />
    <glyph glyph-name="at" unicode="@" horiz-adv-x="1886" 
d="M1790 803c0 -102 -12.335 -193.004 -37.002 -273.004s-57 -147.5 -97 -202.5s-85.167 -97 -135.5 -126s-101.166 -43.5 -152.499 -43.5c-60.667 0 -112.167 14.833 -154.5 44.5s-74.833 78.834 -97.5 147.501h-12c-14 -26.667 -30 -51.667 -48 -75
s-38.333 -43.666 -61 -60.999s-48.334 -31 -77.001 -41s-61 -15 -97 -15c-43.333 0 -84.333 7 -123 21s-72.667 35.333 -102 64s-52.666 65 -69.999 109s-26 96 -26 156c0 36.667 4.33301 76.334 13 119.001s22.334 85.167 41.001 127.5s42.667 83.333 72 123
s64.333 74.667 105 105s87.5 54.666 140.5 72.999s112.833 27.5 179.5 27.5c47.333 0 87.833 -6 121.5 -18s61.167 -26.333 82.5 -43l86 43h50l-86 -512c-2 -8 -3.83301 -18.333 -5.5 -31s-3.16699 -25.667 -4.5 -39s-2.5 -26.166 -3.5 -38.499s-1.5 -22.5 -1.5 -30.5
c0 -28 3 -51 9 -69s13.667 -32.167 23 -42.5s20 -17.333 32 -21s23.667 -5.5 35 -5.5c26.667 0 54 11.333 82 34s53.333 55.834 76 99.501s41.167 97.834 55.5 162.501s21.5 139 21.5 223c0 93.333 -14.167 175.166 -42.5 245.499s-67.833 129 -118.5 176
s-110.834 82.333 -180.501 106s-145.5 35.5 -227.5 35.5c-64.667 0 -128.5 -9 -191.5 -27s-123 -44.333 -180 -79s-109.5 -77.167 -157.5 -127.5s-89.667 -107.666 -125 -171.999s-62.833 -135.5 -82.5 -213.5s-29.5 -162 -29.5 -252c0 -120.667 18 -223.667 54 -309
s84.833 -155 146.5 -209s133.667 -93.333 216 -118s169.5 -37 261.5 -37c55.333 0 109.333 5 162 15s102.667 23 150 39s91.333 34.333 132 55s77 41.667 109 63l49 -78c-36 -27.333 -77 -53 -123 -77s-95.667 -45 -149 -63s-110.333 -32.333 -171 -43
s-123.334 -16 -188.001 -16c-78 0 -153 7.16699 -225 21.5s-139.5 36.166 -202.5 65.499s-120.5 65.833 -172.5 109.5s-96.5 94.834 -133.5 153.501s-65.667 124.667 -86 198s-30.5 154.333 -30.5 243c0 91.333 11.167 178.666 33.5 261.999s54 160.5 95 231.5
s90.833 135.333 149.5 193s124.334 107 197.001 148s151.5 72.5 236.5 94.5s174.833 33 269.5 33c118 0 222 -17 312 -51s165.333 -80.5 226 -139.5s106.334 -128.667 137.001 -209s46 -166.833 46 -259.5zM751.998 486.996c0 -68 12.002 -120.17 36.002 -156.503
s55.667 -54.5 95 -54.5c28.667 0 53.5 7 74.5 21s38.833 32.5 53.5 55.5s26.667 48.833 36 77.5s16.666 58 21.999 88l82 418c-4 9.33301 -9.83301 17.5 -17.5 24.5s-16.5 13 -26.5 18s-20.667 8.66699 -32 11s-22.333 3.5 -33 3.5c-34.667 0 -65.834 -8.66699 -93.501 -26
s-52.167 -40.166 -73.5 -68.499s-39.833 -60.666 -55.5 -96.999s-28.5 -73.166 -38.5 -110.499s-17.333 -73.833 -22 -109.5s-7 -67.167 -7 -94.5z" />
    <glyph glyph-name="A" unicode="A" horiz-adv-x="1542" 
d="M438 481l-99.9971 -183.998c-13.333 -24.667 -23.166 -46.334 -29.499 -65.001s-9.5 -35.334 -9.5 -50.001c0 -25.333 9.33301 -43.833 28 -55.5s47.667 -17.5 87 -17.5h41l-23 -109h-532l22 109h43c18.667 0 35.167 2.16699 49.5 6.5s28.166 12.5 41.499 24.5
s27.166 28.333 41.499 49s30.833 47 49.5 79l695 1194h280l172 -1206c3.33301 -21.333 7.83301 -41 13.5 -59s13.167 -33.5 22.5 -46.5s21.166 -23.167 35.499 -30.5s32.166 -11 53.499 -11h37l-22 -109h-676l22 109h47c44 0 79 6.83301 105 20.5s39 35.5 39 65.5
c0 11.333 -0.333008 22.5 -1 33.5s-1.66699 21.5 -3 31.5l-31 221h-498zM885.003 950.002l-9.49902 84.5c-3 26.333 -5.66699 51.833 -8 76.5s-4.33301 48.667 -6 72s-2.83398 47.333 -3.50098 72c-10 -24.667 -20 -47.5 -30 -68.5l-32 -64l-37.5 -69l-47.5 -84.5l-203 -363
h414z" />
    <glyph glyph-name="B" unicode="B" horiz-adv-x="1376" 
d="M-25 109h27c21.333 0 42.166 1.33301 62.499 4s38.833 8.33398 55.5 17.001s31.167 21 43.5 37s21.166 37.333 26.499 64l209 986c3.33301 13.333 6.33301 26.5 9 39.5s4 22.167 4 27.5c0 14.667 -3.66699 26.667 -11 36s-17.5 16.5 -30.5 21.5s-28.667 8.33301 -47 10
s-38.166 2.5 -59.499 2.5h-26l22 108h635c158.667 0 278.167 -25.833 358.5 -77.5s120.5 -128.167 120.5 -229.5c0 -56 -8.5 -105.333 -25.5 -148s-40.5 -79.5 -70.5 -110.5s-65.333 -56.5 -106 -76.5s-84.667 -35.333 -132 -46l-2 -8
c36.667 -6.66699 70.334 -18 101.001 -34s57 -36.5 79 -61.5s39.167 -54.5 51.5 -88.5s18.5 -72.333 18.5 -115c0 -74.667 -12.667 -141 -38 -199s-62.666 -106.833 -111.999 -146.5s-110.833 -69.834 -184.5 -90.501s-158.834 -31 -255.501 -31h-745zM489 125h142.001
c58 0 107.167 7.66699 147.5 23s73.166 38 98.499 68s43.833 67.167 55.5 111.5s17.5 95.5 17.5 153.5c0 74.667 -17 130.167 -51 166.5s-86.667 54.5 -158 54.5h-129zM639.001 829l115.001 0.000976562c96.667 0 166.5 25.167 209.5 75.5s64.5 122.166 64.5 215.499
c0 72.667 -16.333 127 -49 163s-80.334 54 -143.001 54h-91z" />
    <glyph glyph-name="C" unicode="C" horiz-adv-x="1368" 
d="M823 152c47.333 0 89.999 5.33496 127.999 16.002s72 24.834 102 42.501s56.333 37.5 79 59.5s42.667 44.667 60 68c8 -6 15.833 -15.333 23.5 -28s11.5 -26.667 11.5 -42c0 -34 -10.333 -68.167 -31 -102.5s-51.167 -65.333 -91.5 -93s-90.166 -50 -149.499 -67
s-127.666 -25.5 -204.999 -25.5c-98 0 -185.5 12.167 -262.5 36.5s-142 60 -195 107s-93.5 104.667 -121.5 173s-42 146.166 -42 233.499c0 82 9.66699 162.667 29 242s47.333 154.666 84 225.999s81.5 137 134.5 197s113 112 180 156s140.5 78.333 220.5 103
s165.667 37 257 37c68 0 127.5 -5.83301 178.5 -17.5s93.333 -28 127 -49s58.834 -46.667 75.501 -77s25 -63.833 25 -100.5c0 -30 -7.33301 -56.333 -22 -79s-34.834 -41.834 -60.501 -57.501s-56.167 -27.5 -91.5 -35.5s-73.666 -12 -114.999 -12
c0 28.667 -2 60.334 -6 95.001s-12.167 67 -24.5 97s-29.833 55 -52.5 75s-53 30 -91 30c-54 0 -103.833 -12.333 -149.5 -37s-87.334 -58.167 -125.001 -100.5s-71 -91.5 -100 -147.5s-53.333 -115.167 -73 -177.5s-34.667 -126 -45 -191s-15.5 -127.833 -15.5 -188.5
c0 -116.667 29.667 -206.834 89 -270.501s147.666 -95.5 264.999 -95.5z" />
    <glyph glyph-name="D" unicode="D" horiz-adv-x="1573" 
d="M-27 109h29c21.333 0 42.166 1.33301 62.499 4s38.833 8.33398 55.5 17.001s31.167 21 43.5 37s21.166 37.333 26.499 64l213 1006c2.66699 7.33301 4.83398 15.666 6.50098 24.999s2.5 16.666 2.5 21.999c0 14.667 -3.66699 26.667 -11 36s-17.5 16.5 -30.5 21.5
s-28.667 8.33301 -47 10s-38.166 2.5 -59.499 2.5h-26l22 108h655c98 0 185.5 -12 262.5 -36s142 -59.5 195 -106.5s93.5 -105.167 121.5 -174.5s42 -149.333 42 -240c0 -81.333 -8.5 -160.166 -25.5 -236.499s-42 -148 -75 -215s-73.833 -128.333 -122.5 -184
s-105 -103.5 -169 -143.5s-135.5 -71 -214.5 -93s-164.833 -33 -257.5 -33h-721zM584 127c96 0 181.667 19.502 257 58.502s139 93.667 191 164s91.667 154.166 119 251.499s41 204.333 41 321c0 71.333 -8.33301 133.166 -25 185.499s-40.5 95.5 -71.5 129.5
s-68.667 59.167 -113 75.5s-93.833 24.5 -148.5 24.5h-86l-256 -1210h92z" />
    <glyph glyph-name="E" unicode="E" horiz-adv-x="1296" 
d="M-25 109h26.998c21.333 0 42.166 1.33301 62.499 4s38.833 8.33398 55.5 17.001s31.167 21 43.5 37s21.166 37.333 26.499 64l213 1006c2.66699 7.33301 4.83398 15.666 6.50098 24.999s2.5 16.666 2.5 21.999c0 14.667 -3.66699 26.667 -11 36s-17.5 16.5 -30.5 21.5
s-28.667 8.33301 -47 10s-38.166 2.5 -59.499 2.5h-26l22 108h1112l-72 -381h-145c0.666992 4.66699 1.5 13 2.5 25l3 37.5c1 13 2 25 3 36s1.5 17.833 1.5 20.5c0 18.667 -2.66699 36.334 -8 53.001s-13.666 31.334 -24.999 44.001s-26.166 22.5 -44.499 29.5
s-40.833 10.5 -67.5 10.5h-272l-109 -512h465l-27 -123h-465l-123 -577h324c32 0 60.667 4.5 86 13.5s47.333 21.167 66 36.5s34.5 33.166 47.5 53.499s23.5 41.833 31.5 64.5l33 88h146l-95 -381h-1175z" />
    <glyph glyph-name="F" unicode="F" horiz-adv-x="1272" 
d="M514 242c-3.33301 -15.333 -5.82715 -28.501 -7.49414 -39.501s-2.5 -19.167 -2.5 -24.5c0 -14.667 3.66699 -26.5 11 -35.5s17.666 -16 30.999 -21s29.166 -8.33301 47.499 -10s38.166 -2.5 59.499 -2.5h27l-23 -109h-704l22 109h27c21.333 0 42.166 1.33301 62.499 4
s38.833 8.33398 55.5 17.001s31.167 21 43.5 37s21.166 37.333 26.499 64l209 983c8.66699 35.333 13 58.666 13 69.999c0 14.667 -3.66699 26.667 -11 36s-17.5 16.5 -30.5 21.5s-28.667 8.33301 -47 10s-38.166 2.5 -59.499 2.5h-26l22 108h1126l-71 -381h-146
c1.33301 11.333 2.66602 23.333 3.99902 36s2.5 24.834 3.5 36.501l2.5 30c0.666992 8.33301 1 13.833 1 16.5c0 19.333 -2.66699 37.333 -8 54s-14 31.167 -26 43.5s-27.833 22 -47.5 29s-43.834 10.5 -72.501 10.5h-278l-119 -559h485l-24 -121h-486z" />
    <glyph glyph-name="G" unicode="G" horiz-adv-x="1630" 
d="M1544 590l-2.00098 0.00292969c-22.667 0 -44.5 -1.5 -65.5 -4.5s-40 -8.83301 -57 -17.5s-31.833 -21.334 -44.5 -38.001s-21.667 -38.334 -27 -65.001l-78 -391c-41.333 -16 -81.833 -29.833 -121.5 -41.5s-80 -21.5 -121 -29.5s-83.167 -13.833 -126.5 -17.5
s-89 -5.5 -137 -5.5c-105.333 0 -197.5 12.667 -276.5 38s-145.167 61.666 -198.5 108.999s-93.333 104.833 -120 172.5s-40 143.834 -40 228.501c0 88 10.333 172.833 31 254.5s50.334 157.834 89.001 228.501s86 135 142 193s119 107.667 189 149s146.833 73.333 230.5 96
s172.5 34 266.5 34c78.667 0 147 -7 205 -21s106.333 -32.333 145 -55s67.5 -48.667 86.5 -78s28.5 -59.333 28.5 -90c0 -26.667 -7.83301 -51.5 -23.5 -74.5s-36.834 -43 -63.501 -60s-58.167 -30.5 -94.5 -40.5s-74.833 -15 -115.5 -15c0 42.667 -4.5 82.5 -13.5 119.5
s-23 69.167 -42 96.5s-43 48.666 -72 63.999s-63.5 23 -103.5 23c-52 0 -101.667 -10.667 -149 -32s-91.333 -51 -132 -89s-77.5 -83.333 -110.5 -136s-61.167 -110.334 -84.5 -173.001s-41.333 -129.5 -54 -200.5s-19 -143.5 -19 -217.5
c0 -57.333 5.66699 -109.5 17 -156.5s29.5 -87.5 54.5 -121.5s57 -60.333 96 -79s86.167 -28 141.5 -28c31.333 0 63.333 2.66699 96 8s61.334 12 86.001 20l68 304c8 36 12 59 12 69c0 14.667 -3.66699 26.667 -11 36s-17.5 16.5 -30.5 21.5s-28.5 8.33301 -46.5 10
s-37.667 2.5 -59 2.5h-27l23 108h682z" />
    <glyph glyph-name="H" unicode="H" horiz-adv-x="1677" 
d="M807 0l22.002 109h27c22 0 43.333 1.33301 64 4s39.667 8.5 57 17.5s32.166 21.5 44.499 37.5s21.5 37.667 27.5 65l98 467h-535l-100 -475c-2 -7.33301 -3.83301 -15.666 -5.5 -24.999s-2.5 -16.666 -2.5 -21.999c0 -14.667 3.66699 -26.5 11 -35.5
s17.666 -16 30.999 -21s29.166 -8.33301 47.499 -10s38.166 -2.5 59.499 -2.5h27l-23 -109h-704l22 109h27c21.333 0 42.166 1.33301 62.499 4s38.833 8.33398 55.5 17.001s31.167 21 43.5 37s21.166 37.333 26.499 64l209 983c8.66699 35.333 13 58.666 13 69.999
c0 14.667 -3.66699 26.667 -11 36s-17.5 16.5 -30.5 21.5s-28.667 8.33301 -47 10s-38.166 2.5 -59.499 2.5h-26l22 108h707l-23 -108h-26c-22.667 0 -44.5 -1.5 -65.5 -4.5s-40.167 -8.83301 -57.5 -17.5s-32.333 -21.334 -45 -38.001s-21.667 -38.334 -27 -65.001
l-84 -404h535l86 398c3.33301 14 5.83301 26.333 7.5 37s2.5 18.667 2.5 24c0 14.667 -3.83301 26.667 -11.5 36s-18.167 16.5 -31.5 21.5s-29.166 8.33301 -47.499 10s-38.166 2.5 -59.499 2.5h-26l22 108h707l-23 -108h-26c-22 0 -43.333 -1.5 -64 -4.5
s-39.667 -8.83301 -57 -17.5s-32.166 -21.334 -44.499 -38.001s-21.5 -38.334 -27.5 -65.001l-211 -1004c-2 -7.33301 -3.83301 -15.666 -5.5 -24.999s-2.5 -16.666 -2.5 -21.999c0 -14.667 3.66699 -26.5 11 -35.5s17.5 -16 30.5 -21s28.5 -8.33301 46.5 -10
s37.667 -2.5 59 -2.5h27l-23 -109h-706z" />
    <glyph glyph-name="I" unicode="I" horiz-adv-x="821" 
d="M-47 0l22.0029 109.001h27c21.333 0 42.166 1.33301 62.499 4s38.833 8.33398 55.5 17.001s31.167 21 43.5 37s21.166 37.333 26.499 64l213 1006c2.66699 7.33301 4.83398 15.666 6.50098 24.999s2.5 16.666 2.5 21.999c0 14.667 -3.66699 26.667 -11 36
s-17.5 16.5 -30.5 21.5s-28.667 8.33301 -47 10s-38.166 2.5 -59.499 2.5h-26l22 108h707l-23 -108h-26c-22.667 0 -44.5 -1.5 -65.5 -4.5s-40.167 -8.83301 -57.5 -17.5s-32.333 -21.334 -45 -38.001s-21.667 -38.334 -27 -65.001l-211 -1004
c-1.33301 -7.33301 -3 -15.666 -5 -24.999s-3 -16.666 -3 -21.999c0 -14.667 3.66699 -26.5 11 -35.5s17.666 -16 30.999 -21s29.166 -8.33301 47.499 -10s38.166 -2.5 59.499 -2.5h27l-23 -109h-704z" />
    <glyph glyph-name="J" unicode="J" horiz-adv-x="821" 
d="M463 -6c-17.333 -83.333 -46.334 -155.496 -87.001 -216.496s-88.667 -111.5 -144 -151.5s-116.333 -69.667 -183 -89s-135 -29 -205 -29c-36.667 0 -67.5 2 -92.5 6s-50.167 9.66699 -75.5 17l29 113c8.66699 -3.33301 18.5 -6.16602 29.5 -8.49902
s22.5 -4.33301 34.5 -6s24 -2.83398 36 -3.50098s23 -1 33 -1c35.333 0 68.166 6.33301 98.499 19s58 33.5 83 62.5s47.5 67 67.5 114s37.333 104.833 52 173.5l264 1243c2.66699 7.33301 4.83398 15.666 6.50098 24.999s2.5 16.666 2.5 21.999
c0 14.667 -3.66699 26.667 -11 36s-17.5 16.5 -30.5 21.5s-28.667 8.33301 -47 10s-38.166 2.5 -59.499 2.5h-26l22 108h707l-23 -108h-26c-22.667 0 -44.5 -1.5 -65.5 -4.5s-40.167 -8.83301 -57.5 -17.5s-32.333 -21.334 -45 -38.001s-21.667 -38.334 -27 -65.001z" />
    <glyph glyph-name="K" unicode="K" horiz-adv-x="1518" 
d="M1036 1110c28 24.667 50.835 46.832 68.502 66.499s31.667 37.334 42 53.001s17.5 29.5 21.5 41.5s6 22.667 6 32c0 17.333 -6.66699 30.5 -20 39.5s-37 13.5 -71 13.5l23 106h553l-23 -106c-27.333 0 -53.666 -3.33301 -78.999 -10s-51 -17 -77 -31
s-53.167 -31.667 -81.5 -53s-58.833 -46.666 -91.5 -75.999l-332 -293l239 -576c16.667 -38 31.834 -70.333 45.501 -97s27.667 -48.167 42 -64.5s30 -28.166 47 -35.499s37.167 -11 60.5 -11h6l-20 -109h-107c-68 0 -124.5 4.16699 -169.5 12.5s-83 23.166 -114 44.499
s-57.333 50.166 -79 86.499s-43.5 82.833 -65.5 139.5l-151 391l-121 -86l-76 -363c-1.33301 -7.33301 -3 -15.666 -5 -24.999s-3 -16.666 -3 -21.999c0 -14.667 3.66699 -26.5 11 -35.5s17.666 -16 30.999 -21s29.166 -8.33301 47.499 -10s38.166 -2.5 59.499 -2.5h27
l-23 -109h-704l22 109h27c21.333 0 42.166 1.33301 62.499 4s38.833 8.33398 55.5 17.001s31.167 21 43.5 37s21.166 37.333 26.499 64l209 983c8.66699 35.333 13 58.666 13 69.999c0 14.667 -3.66699 26.667 -11 36s-17.5 16.5 -30.5 21.5s-28.667 8.33301 -47 10
s-38.166 2.5 -59.499 2.5h-26l22 108h707l-23 -108h-26c-22.667 0 -44.5 -1.5 -65.5 -4.5s-40.167 -8.83301 -57.5 -17.5s-32.333 -21.334 -45 -38.001s-21.667 -38.334 -27 -65.001l-102 -486z" />
    <glyph glyph-name="L" unicode="L" horiz-adv-x="1339" 
d="M834 125c37.333 0 69.6699 4.66992 97.0029 14.0029s51.166 23.166 71.499 41.499s38.166 41.5 53.499 69.5s29.333 60.667 42 98l37 109h131l-113 -457h-1200l22 109h27c21.333 0 42.166 1.33301 62.499 4s38.833 8.33398 55.5 17.001s31.167 21 43.5 37
s21.166 37.333 26.499 64l209 983c8.66699 35.333 13 58.666 13 69.999c0 14.667 -3.66699 26.667 -11 36s-17.5 16.5 -30.5 21.5s-28.667 8.33301 -47 10s-38.166 2.5 -59.499 2.5h-26l22 108h707l-23 -108h-26c-22.667 0 -44.5 -1.5 -65.5 -4.5
s-40.167 -8.83301 -57.5 -17.5s-32.333 -21.334 -45 -38.001s-21.667 -38.334 -27 -65.001l-231 -1104h342z" />
    <glyph glyph-name="M" unicode="M" horiz-adv-x="1950" 
d="M2097 1462l-21.9951 -108h-27c-22 0 -43.333 -1.5 -64 -4.5s-39.667 -8.83301 -57 -17.5s-32.166 -21.334 -44.499 -38.001s-21.5 -38.334 -27.5 -65.001l-210 -1004c-2.66699 -7.33301 -4.83398 -15.666 -6.50098 -24.999s-2.5 -16.666 -2.5 -21.999
c0 -14.667 3.66699 -26.5 11 -35.5s17.5 -16 30.5 -21s28.667 -8.33301 47 -10s38.166 -2.5 59.499 -2.5h26l-22 -109h-698l22 109h27c22 0 43.333 1.33301 64 4s39.5 8.5 56.5 17.5s31.833 21.5 44.5 37.5s21.667 37.667 27 65l217 1027l-678 -1260h-141l-166 1260
l-217 -1018c-3.33301 -15.333 -5.83301 -28.5 -7.5 -39.5s-2.5 -19.167 -2.5 -24.5c0 -14.667 3.66699 -26.5 11 -35.5s17.666 -16 30.999 -21s29.166 -8.33301 47.499 -10s38.166 -2.5 59.499 -2.5h7l-23 -109h-516l22 109h27c21.333 0 42.166 1.33301 62.499 4
s38.833 8.33398 55.5 17.001s31.167 21 43.5 37s21.166 37.333 26.499 64l209 983c8.66699 35.333 13 58.666 13 69.999c0 14.667 -3.66699 26.667 -11 36s-17.5 16.5 -30.5 21.5s-28.667 8.33301 -47 10s-38.166 2.5 -59.499 2.5h-26l22 108h571l138 -995l536 995h592z" />
    <glyph glyph-name="N" unicode="N" horiz-adv-x="1614" 
d="M1094 0l-554.999 1159l-193 -917c-3.33301 -15.333 -5.83301 -28.5 -7.5 -39.5s-2.5 -19.167 -2.5 -24.5c0 -14.667 3.66699 -26.5 11 -35.5s17.666 -16 30.999 -21s29.166 -8.33301 47.499 -10s38.166 -2.5 59.499 -2.5h7l-23 -109h-516l22 109h27
c21.333 0 42.166 1.33301 62.499 4s38.833 8.33398 55.5 17.001s31.167 21 43.5 37s21.166 37.333 26.499 64l209 983c8.66699 35.333 13 58.666 13 69.999c0 14.667 -3.66699 26.667 -11 36s-17.5 16.5 -30.5 21.5s-28.667 8.33301 -47 10s-38.166 2.5 -59.499 2.5h-26
l22 108h455l499 -1050l172 809c7.33301 31.333 11 52.333 11 63c0 14.667 -3.83301 26.667 -11.5 36s-18.167 16.5 -31.5 21.5s-29.166 8.33301 -47.499 10s-38.166 2.5 -59.499 2.5h-6l23 108h516l-23 -108h-26c-21.333 0 -42.166 -1.5 -62.499 -4.5
s-38.833 -8.83301 -55.5 -17.5s-31.167 -21 -43.5 -37s-21.5 -37.333 -27.5 -64l-260 -1231h-188z" />
    <glyph glyph-name="O" unicode="O" horiz-adv-x="1622" 
d="M129 545c0 65.333 8.16992 133.999 24.5029 205.999s40.833 142.833 73.5 212.5s73.334 136 122.001 199s105.167 118.333 169.5 166s136.833 85.667 217.5 114s169 42.5 265 42.5c75.333 0 147.166 -11 215.499 -33s128.5 -56 180.5 -102s93.333 -104.333 124 -175
s46 -155 46 -253c0 -62.667 -7.83301 -129.667 -23.5 -201s-39.334 -142 -71.001 -212s-71.334 -137 -119.001 -201s-103.667 -120.5 -168 -169.5s-137 -88.167 -218 -117.5s-170.167 -44 -267.5 -44c-80.667 0 -155.834 12.167 -225.501 36.5s-130 60.5 -181 108.5
s-91.167 107.333 -120.5 178s-44 152.334 -44 245.001zM463.003 495.999c0 -67.333 7.16699 -125.167 21.5 -173.5s34 -88 59 -119s54.5 -53.833 88.5 -68.5s70.333 -22 109 -22c56.667 0 108.167 13.667 154.5 41s87.833 63.833 124.5 109.5s68.5 98 95.5 157
s49.333 120.167 67 183.5s30.834 126.5 39.501 189.5s13 121.5 13 175.5c0 66.667 -7 124 -21 172s-33.167 87.667 -57.5 119s-53.5 54.5 -87.5 69.5s-71 22.5 -111 22.5c-56.667 0 -108.167 -13.667 -154.5 -41s-87.833 -63.833 -124.5 -109.5s-68.667 -98 -96 -157
s-49.833 -120.333 -67.5 -184s-30.834 -127 -39.501 -190s-13 -121.167 -13 -174.5z" />
    <glyph glyph-name="P" unicode="P" horiz-adv-x="1358" 
d="M610 678h86.001c62 0 114.5 9.33301 157.5 28s77.833 44.834 104.5 78.501s46 73.667 58 120s18 97.166 18 152.499c0 51.333 -5.83301 95 -17.5 131s-27.834 65.333 -48.501 88s-45.5 39.167 -74.5 49.5s-60.5 15.5 -94.5 15.5h-45zM512.001 225
c-2 -7.33301 -3.8291 -15.665 -5.49609 -24.998s-2.5 -16.666 -2.5 -21.999c0 -14.667 3.66699 -26.5 11 -35.5s17.666 -16 30.999 -21s29.166 -8.33301 47.499 -10s38.166 -2.5 59.499 -2.5h68l-23 -109h-745l22 109h27c21.333 0 42.166 1.33301 62.499 4
s38.833 8.33398 55.5 17.001s31.167 21 43.5 37s21.166 37.333 26.499 64l209 983c8.66699 35.333 13 58.666 13 69.999c0 14.667 -3.66699 26.667 -11 36s-17.5 16.5 -30.5 21.5s-28.667 8.33301 -47 10s-38.166 2.5 -59.499 2.5h-26l22 108h586
c80 0 152.333 -8.5 217 -25.5s119.5 -42.333 164.5 -76s79.667 -75.334 104 -125.001s36.5 -107.167 36.5 -172.5c0 -34.667 -3.33301 -71.334 -10 -110.001s-18.5 -76.667 -35.5 -114s-40.5 -72.833 -70.5 -106.5s-68.167 -63.334 -114.5 -89.001s-102 -46.167 -167 -61.5
s-141.5 -23 -229.5 -23h-155z" />
    <glyph glyph-name="Q" unicode="Q" horiz-adv-x="1612" 
d="M127 545c0 65.333 8.16504 134 24.498 206s40.833 142.833 73.5 212.5s73.334 136 122.001 199s105.167 118.333 169.5 166s136.833 85.667 217.5 114s169 42.5 265 42.5c75.333 0 147.166 -11 215.499 -33s128.5 -56 180.5 -102s93.333 -104.333 124 -175
s46 -155 46 -253c0 -56 -6.16699 -115 -18.5 -177s-30.666 -124.167 -54.999 -186.5s-55.166 -123 -92.499 -182s-80.833 -113.333 -130.5 -163s-105.834 -93.167 -168.501 -130.5s-131.667 -65 -207 -83c2 -75.333 9 -137.166 21 -185.499s28.333 -86.333 49 -114
s44.834 -46.834 72.501 -57.501s58.5 -16 92.5 -16h33l-26 -119h-148c-61.333 0 -118.333 9.16699 -171 27.5s-98.5 47 -137.5 86s-69.833 89.167 -92.5 150.5s-35 135.333 -37 222c-62 12.667 -118.833 33.834 -170.5 63.501s-96.167 67.667 -133.5 114
s-66.333 100.666 -87 162.999s-31 132.5 -31 210.5zM460.998 496c0 -67.333 7.16699 -125.167 21.5 -173.5s34 -88 59 -119s54.5 -53.833 88.5 -68.5s70.333 -22 109 -22c56.667 0 108.167 13.667 154.5 41s87.833 63.833 124.5 109.5s68.5 98 95.5 157
s49.333 120.167 67 183.5s30.834 126.5 39.501 189.5s13 121.5 13 175.5c0 66.667 -7 124 -21 172s-33.167 87.667 -57.5 119s-53.5 54.5 -87.5 69.5s-71 22.5 -111 22.5c-56.667 0 -108.167 -13.667 -154.5 -41s-87.833 -63.833 -124.5 -109.5s-68.667 -98 -96 -157
s-49.833 -120.333 -67.5 -184s-30.834 -127 -39.501 -190s-13 -121.167 -13 -174.5zM699.998 -23.001z" />
    <glyph glyph-name="R" unicode="R" horiz-adv-x="1448" 
d="M621 754h126.999c43.333 0 83.833 6.33301 121.5 19s70.334 32.5 98.001 59.5s49.5 62 65.5 105s24 95.167 24 156.5c0 46 -4 84.667 -12 116s-20.333 56.833 -37 76.5s-37.667 33.667 -63 42s-55 12.5 -89 12.5h-104zM917.999 1462
c163.333 0 285.335 -28.332 366.002 -84.999s121 -142.334 121 -257.001c0 -69.333 -11.167 -128.333 -33.5 -177s-51 -89.5 -86 -122.5s-74.167 -59.167 -117.5 -78.5s-86 -34 -128 -44l142 -381c14 -38.667 27.667 -71.334 41 -98.001s27.5 -48.167 42.5 -64.5
s31.333 -28 49 -35s38.167 -10.5 61.5 -10.5h8l-22 -109h-21c-71.333 0 -133.166 3 -185.499 9s-97.166 17.5 -134.499 34.5s-68.333 40.667 -93 71s-44.667 69.833 -60 118.5l-129 402h-141l-80 -375c-5.33301 -24.667 -9 -43.167 -11 -55.5s-3 -21.166 -3 -26.499
c0 -14.667 3.66699 -26.5 11 -35.5s17.666 -16 30.999 -21s29.166 -8.33301 47.499 -10s38.166 -2.5 59.499 -2.5h68l-23 -109h-745l22 109h27c21.333 0 42.166 1.33301 62.499 4s38.833 8.33398 55.5 17.001s31.167 21 43.5 37s21.166 37.333 26.499 64l209 983
c8.66699 35.333 13 58.666 13 69.999c0 14.667 -3.66699 26.667 -11 36s-17.5 16.5 -30.5 21.5s-28.667 8.33301 -47 10s-38.166 2.5 -59.499 2.5h-26l22 108h658z" />
    <glyph glyph-name="S" unicode="S" horiz-adv-x="1200" 
d="M535 -20c-84.667 0 -158.667 7.66895 -222 23.002s-116 36.333 -158 63s-73.5 58.167 -94.5 94.5s-31.5 75.833 -31.5 118.5c0 32 6.5 60 19.5 84s31.333 44 55 60s51.667 28 84 36s68.166 12 107.499 12c0 -62.667 6.66699 -117 20 -163s32 -84.167 56 -114.5
s52.667 -52.833 86 -67.5s70 -22 110 -22c38.667 0 73 5.5 103 16.5s55.5 26 76.5 45s37 41.333 48 67s16.5 53.167 16.5 82.5c0 28.667 -3.5 55 -10.5 79s-19.833 47.333 -38.5 70s-44.334 45.667 -77.001 69s-74.667 49 -126 77
c-53.333 29.333 -100.166 59.5 -140.499 90.5s-74 64.5 -101 100.5s-47.333 75.5 -61 118.5s-20.5 91.5 -20.5 145.5c0 61.333 12.333 117.666 37 168.999s60 95.5 106 132.5s101.667 65.667 167 86s138.666 30.5 219.999 30.5c76 0 142.333 -6 199 -18
s103.834 -28.333 141.501 -49s65.834 -45 84.501 -73s28 -58 28 -90c0 -55.333 -21 -98.833 -63 -130.5s-110.667 -47.5 -206 -47.5c0 30.667 -3 62.667 -9 96s-16.667 63.833 -32 91.5s-36 50.5 -62 68.5s-59 27 -99 27c-27.333 0 -54.5 -4.33301 -81.5 -13
s-51.167 -21.667 -72.5 -39s-38.666 -39.166 -51.999 -65.499s-20 -57.5 -20 -93.5s5.66699 -66.667 17 -92s28.333 -48.833 51 -70.5s51 -42.667 85 -63s74 -42.833 120 -67.5c103.333 -56 179.666 -117.833 228.999 -185.5s74 -145.167 74 -232.5
c0 -72.667 -13.167 -137.334 -39.5 -194.001s-64 -104.334 -113 -143.001s-108.167 -68.167 -177.5 -88.5s-147 -30.5 -233 -30.5z" />
    <glyph glyph-name="T" unicode="T" horiz-adv-x="1337" 
d="M213 0l23.002 108.998h26c21.333 0 42.166 1.33301 62.499 4s38.833 8.33398 55.5 17.001s31.167 21 43.5 37s21.5 37.333 27.5 64l231 1106h-164c-32 0 -59.167 -4 -81.5 -12s-41.666 -19.833 -57.999 -35.5s-30.166 -34.834 -41.499 -57.501s-22 -49 -32 -79l-29 -88
h-137l94 397h1274l-71 -397h-138c0.666992 4.66699 1.83398 15.167 3.50098 31.5l5.5 52.5l5.5 51.5c1.66699 15.667 2.5 25.167 2.5 28.5c0 36 -10.833 63 -32.5 81s-58.834 27 -111.501 27h-163l-236 -1112c-1.33301 -7.33301 -3 -15.666 -5 -24.999
s-3 -16.666 -3 -21.999c0 -14.667 3.66699 -26.5 11 -35.5s17.666 -16 30.999 -21s29.166 -8.33301 47.499 -10s38.166 -2.5 59.499 -2.5h27l-22 -109h-705z" />
    <glyph glyph-name="U" unicode="U" horiz-adv-x="1530" 
d="M772 125c62 0 114.328 9.00391 156.995 27.0039s78.334 42.833 107.001 74.5s51.667 69.334 69 113.001s31.333 91.5 42 143.5l158 740c2 11.333 3.83301 23 5.5 35s2.5 20.667 2.5 26c0 14.667 -3.66699 26.667 -11 36s-17.5 16.5 -30.5 21.5s-28.667 8.33301 -47 10
s-38.166 2.5 -59.499 2.5h-26l22 108h539l-23 -108h-26c-22 0 -43.333 -1.5 -64 -4.5s-39.667 -8.83301 -57 -17.5s-32.166 -21.334 -44.499 -38.001s-21.5 -38.334 -27.5 -65.001l-164 -778c-16 -76.667 -39.833 -144.334 -71.5 -203.001s-72 -107.834 -121 -147.501
s-106.833 -69.667 -173.5 -90s-143.334 -30.5 -230.001 -30.5c-80 0 -150.667 7.83301 -212 23.5s-113 38.667 -155 69s-73.833 67.5 -95.5 111.5s-32.5 94 -32.5 150c0 10.667 0.666992 24 2 40s3 32.5 5 49.5s4.33301 33.667 7 50s5.33398 30.5 8.00098 42.5l150 698
c8 36.667 12 60 12 70c0 14.667 -3.66699 26.667 -11 36s-17.5 16.5 -30.5 21.5s-28.5 8.33301 -46.5 10s-37.667 2.5 -59 2.5h-27l23 108h708l-22 -108h-27c-22.667 0 -44.5 -1.5 -65.5 -4.5s-40.167 -8.66699 -57.5 -17s-32.166 -20.5 -44.499 -36.5s-21.5 -37 -27.5 -63
l-155 -721l-8.5 -40c-3 -14.667 -5.66699 -29.834 -8 -45.501s-4.33301 -31.5 -6 -47.5s-2.5 -31 -2.5 -45c0 -68.667 21.333 -120.667 64 -156s105.334 -53 188.001 -53z" />
    <glyph glyph-name="V" unicode="V" horiz-adv-x="1430" 
d="M659 1272c0 -11.333 0.501953 -23.498 1.50195 -36.498s2.16699 -24.167 3.5 -33.5l65 -540c2.66699 -24 5.16699 -51.833 7.5 -83.5s4 -63.667 5 -96s1.83301 -63 2.5 -92s1 -52.833 1 -71.5l25.5 59l26 60l23.5 54c7.33301 16.667 14 30 20 40l368 662
c13.333 23.333 22.833 43.666 28.5 60.999s8.5 33.333 8.5 48c0 20 -10 33.5 -30 40.5s-49.667 10.5 -89 10.5h-47l21 108h534l-22 -108h-49c-20 0 -37.167 -1.66699 -51.5 -5s-27.833 -9.83301 -40.5 -19.5s-25.334 -23.5 -38.001 -41.5s-27.334 -41.667 -44.001 -71
l-682 -1217h-205l-172 1255c-3.33301 20.667 -8.83301 37.5 -16.5 50.5s-17 23.167 -28 30.5s-23.667 12.166 -38 14.499s-29.833 3.5 -46.5 3.5h-27l23 108h675l-22 -108h-47c-44 0 -79 -5.5 -105 -16.5s-39 -32.833 -39 -65.5z" />
    <glyph glyph-name="W" unicode="W" horiz-adv-x="2185" 
d="M2367 1354l-48.999 0.00488281c-20 0 -37.667 -2 -53 -6s-29.5 -11.5 -42.5 -22.5s-26 -26.333 -39 -46s-26.833 -44.834 -41.5 -75.501l-573 -1204h-234l-141 977l-498 -977h-254l-110 1255c-2 20.667 -6.66699 37.5 -14 50.5s-16.833 23.167 -28.5 30.5
s-24.834 12.166 -39.501 14.499s-30.334 3.5 -47.001 3.5h-27l23 108h669l-22 -108h-47c-44 0 -79 -5.5 -105 -16.5s-39 -32.833 -39 -65.5c0 -11.333 0.333008 -24.333 1 -39s1.66699 -31.667 3 -51l39 -510c2 -18 4 -41.833 6 -71.5s3.83301 -60.834 5.5 -93.501
s3 -64.834 4 -96.501s1.5 -58.5 1.5 -80.5c14 40 30.333 80.167 49 120.5s38.334 80.5 59.001 120.5l457 877h150l116 -782c9.33301 -64.667 17.5 -126.5 24.5 -185.5s10.5 -110.5 10.5 -154.5l29 79l37.5 95.5l43.5 102.5l46 102l227 489
c9.33301 19.333 16.833 38.666 22.5 57.999s8.5 36.333 8.5 51c0 20 -9 33.5 -27 40.5s-46.667 10.5 -86 10.5h-47l20 108h535z" />
    <glyph glyph-name="X" unicode="X" horiz-adv-x="1499" 
d="M1610 1354l-18.9961 -0.000976562c-20 0 -38.333 -2.33301 -55 -7s-33.834 -12.667 -51.501 -24s-36.334 -26.333 -56.001 -45s-42.5 -42 -68.5 -70l-385 -405l252 -586c18.667 -42 40.5 -70.5 65.5 -85.5s50.167 -22.5 75.5 -22.5h27l-23 -109h-676l23 109h31
c40.667 0 70.167 6.16699 88.5 18.5s27.5 29.833 27.5 52.5c0 19.333 -3.33301 40.833 -10 64.5s-16.334 49.5 -29.001 77.5l-125 282l-286 -297c-24.667 -25.333 -44.5 -49.666 -59.5 -72.999s-22.5 -44.666 -22.5 -63.999c0 -10 1.66699 -18.667 5 -26
s9.16602 -13.666 17.499 -18.999s19.666 -9.33301 33.999 -12s32.833 -4 55.5 -4h7l-23 -109h-516l23 109h20c20.667 0 39.834 2.5 57.501 7.5s35.667 13.167 54 24.5s38 26.333 59 45s44.833 42 71.5 70l452 467l-229 526c-10 22.667 -20.167 41 -30.5 55
s-21.833 24.667 -34.5 32s-26.834 12.166 -42.501 14.499s-33.167 3.5 -52.5 3.5h-18l22 108h678l-22 -108h-48c-34 0 -58.5 -5 -73.5 -15s-22.5 -24.333 -22.5 -43c0 -13.333 3.16699 -29.833 9.5 -49.5s15.5 -43.834 27.5 -72.501l109 -254l241 258
c18.667 19.333 35.334 40.333 50.001 63s22 43.334 22 62.001c0 17.333 -8.33301 30.166 -25 38.499s-41 12.5 -73 12.5h-6l22 108h477z" />
    <glyph glyph-name="Y" unicode="Y" horiz-adv-x="1419" 
d="M227 0l23.0039 109.003h55c21.333 0 42 1.5 62 4.5s38.333 9 55 18s31 21.5 43 37.5s21 37.333 27 64l59 285l-221 727c-6 20 -12.167 37 -18.5 51s-13.833 25.167 -22.5 33.5s-19.5 14.5 -32.5 18.5s-29.5 6 -49.5 6h-27l23 108h665l-22 -108h-92
c-31.333 0 -53.5 -5.33301 -66.5 -16s-19.5 -25.334 -19.5 -44.001c0 -12 2 -29.333 6 -52s10 -49.667 18 -81l74 -289l15 -64c5.33301 -22.667 10.166 -45.334 14.499 -68.001s8 -44.834 11 -66.501s5.16699 -40.834 6.5 -57.501c12.667 27.333 32 62 58 104
s56.667 88 92 138l202 289c16.667 23.333 31.167 48.666 43.5 75.999s18.5 52.333 18.5 75c0 18.667 -9.5 32.667 -28.5 42s-51.167 14 -96.5 14h-43l24 108h537l-23 -108h-38c-15.333 0 -29.5 -2 -42.5 -6s-26.167 -11.167 -39.5 -21.5s-27.5 -24 -42.5 -41
s-31.833 -38.5 -50.5 -64.5l-507 -705l-62 -291c-1.33301 -7.33301 -3 -15.666 -5 -24.999s-3 -16.666 -3 -21.999c0 -14.667 3.66699 -26.5 11 -35.5s17.666 -16 30.999 -21s29.166 -8.33301 47.499 -10s38.166 -2.5 59.499 -2.5h50l-23 -109h-756z" />
    <glyph glyph-name="Z" unicode="Z" horiz-adv-x="1364" 
d="M1423 1358l-1011 -1233h422c30.667 0 59.667 4 87 12s52.333 20.667 75 38s43 40.166 61 68.499s33 63.166 45 104.499l22 74h148l-98 -422h-1178l18 102l1010 1235h-356c-62 0 -111.833 -14 -149.5 -42s-65.167 -73.333 -82.5 -136l-35 -119h-147l100 422h1090z" />
    <glyph glyph-name="bracketleft" unicode="[" horiz-adv-x="848" 
d="M43 -262l387.001 1818h567l-22 -108h-88c-22.667 0 -44.5 -1.66699 -65.5 -5s-40.5 -10.166 -58.5 -20.499s-33.667 -25.166 -47 -44.499s-23.333 -45.333 -30 -78l-276 -1306c-2 -10.667 -3.66699 -20 -5 -28s-2 -15.667 -2 -23c0 -21.333 3.66699 -38.333 11 -51
s17.5 -22.334 30.5 -29.001s28.167 -11.167 45.5 -13.5s35.666 -3.5 54.999 -3.5h88l-23 -108h-567z" />
    <glyph glyph-name="backslash" unicode="\" horiz-adv-x="590" 
d="M221 1556h144l110 -1804h-143z" />
    <glyph glyph-name="bracketright" unicode="]" horiz-adv-x="848" 
d="M844 1556l-387 -1818h-566l23 108h88c22.667 0 44.5 1.66699 65.5 5s40.167 10.166 57.5 20.499s32.666 25.333 45.999 45s23.333 45.5 30 77.5l276 1306c4 20.667 6 38 6 52c0 20.667 -3.66699 37.334 -11 50.001s-17.333 22.5 -30 29.5s-27.667 11.5 -45 13.5
s-35.666 3 -54.999 3h-88l22 108h568z" />
    <glyph glyph-name="asciicircum" unicode="^" 
d="M569 1462h88l435 -925h-160l-320 702l-315 -702h-160z" />
    <glyph glyph-name="underscore" unicode="_" horiz-adv-x="940" 
d="M772 -291h-958l26 121h959z" />
    <glyph glyph-name="grave" unicode="`" horiz-adv-x="1182" 
d="M831 1241c-29.333 17.333 -60.498 39.334 -93.498 66.001s-64.833 54.5 -95.5 83.5s-58.834 57.5 -84.501 85.5s-45.5 52 -59.5 72l6 21h301c8 -24.667 18.5 -51.334 31.5 -80.001s26.5 -56.667 40.5 -84s28.167 -53 42.5 -77s27.166 -44 38.499 -60l-6 -27h-121z" />
    <glyph glyph-name="a" unicode="a" horiz-adv-x="1362" 
d="M969 -20c-60.667 0 -109.329 13.834 -145.996 41.501s-55 68.167 -55 121.5c0 21.333 1 42.166 3 62.499s5.66699 43.833 11 70.5h-14c-25.333 -47.333 -50.5 -89.5 -75.5 -126.5s-52.833 -68 -83.5 -93s-64.834 -44 -102.501 -57s-81.5 -19.5 -131.5 -19.5
c-48.667 0 -91.334 9.5 -128.001 28.5s-67.167 45.167 -91.5 78.5s-42.666 72.833 -54.999 118.5s-18.5 95.167 -18.5 148.5s6.16699 109.166 18.5 167.499s30.833 115.833 55.5 172.5s55.167 110.667 91.5 162s78.333 96.333 126 135s100.834 69.5 159.501 92.5
s122.667 34.5 192 34.5c26.667 0 53.834 -2.16699 81.501 -6.5s54.167 -9.83301 79.5 -16.5s49.166 -14.167 71.499 -22.5s41.166 -16.833 56.499 -25.5l108 49h109l-135 -639c-2.66699 -11.333 -6 -26.333 -10 -45s-7.83301 -38.5 -11.5 -59.5
s-6.83398 -41.333 -9.50098 -61s-4 -36.167 -4 -49.5c0 -34 6.66699 -59.333 20 -76s30.666 -25 51.999 -25c19.333 0 37.833 4.16699 55.5 12.5s37.167 18.5 58.5 30.5l45 -82c-17.333 -13.333 -37 -27.166 -59 -41.499s-46.5 -27.5 -73.5 -39.5s-56.333 -21.833 -88 -29.5
s-65.834 -11.5 -102.501 -11.5zM393.005 352.001c0 -39.333 2.83398 -72.3301 8.50098 -98.9971s13.334 -48.167 23.001 -64.5s21.334 -28 35.001 -35s28.5 -10.5 44.5 -10.5c30 0 61 13 93 39s62 60.167 90 102.5s53.167 90.166 75.5 143.499s39.166 107.333 50.499 162
l72 340c-13.333 19.333 -31.833 33.666 -55.5 42.999s-48.834 14 -75.501 14c-40 0 -76.5 -10.333 -109.5 -31s-62.833 -48.334 -89.5 -83.001s-50.167 -74 -70.5 -118s-37.333 -89.667 -51 -137s-23.834 -94 -30.501 -140s-10 -88 -10 -126z" />
    <glyph glyph-name="b" unicode="b" horiz-adv-x="1276" 
d="M315 1274l5.99902 27c2 9.33301 3.66699 18.166 5 26.499s2.33301 15.5 3 21.5s1 10.333 1 13c0 18.667 -2 33.667 -6 45s-10.333 20 -19 26s-20 10 -34 12s-30.667 3 -50 3h-47l19 108h497l-82 -389c-2.66699 -12.667 -6.83398 -28.667 -12.501 -48l-19 -63
c-7 -22.667 -14.667 -45.834 -23 -69.501l-23.5 -67.5l-20 -58l-14 -40h10c24.667 50 50.334 93.5 77.001 130.5s55.667 67.833 87 92.5s65.333 43.167 102 55.5s77.667 18.5 123 18.5c43.333 0 83.333 -8 120 -24s68.167 -39.5 94.5 -70.5s47 -69.667 62 -116
s22.5 -99.5 22.5 -159.5c0 -55.333 -6.66699 -112.666 -20 -171.999s-33 -117.5 -59 -174.5s-57.833 -111 -95.5 -162s-81 -95.667 -130 -134s-103.167 -68.833 -162.5 -91.5s-123.333 -34 -192 -34c-28 0 -55 2 -81 6s-50.167 9.33301 -72.5 16
s-42.666 14.334 -60.999 23.001s-33.833 18 -46.5 28l-116 -59h-115zM882.999 733c0 40.667 -2.83594 75.0029 -8.50293 103.003s-13.5 50.667 -23.5 68s-21.667 30 -35 38s-27.333 12 -42 12c-25.333 0 -49.666 -7.5 -72.999 -22.5s-45.5 -34.5 -66.5 -58.5
s-40.333 -50.833 -58 -80.5s-33.334 -59.334 -47.001 -89.001s-25.167 -57.667 -34.5 -84s-16 -47.833 -20 -64.5l-84 -387c14.667 -16.667 33.334 -30.334 56.001 -41.001s48.334 -16 77.001 -16c40 0 76.667 10.5 110 31.5s63.333 48.667 90 83s49.834 73.5 69.501 117.5
s36.167 89 49.5 135s23.333 91.167 30 135.5s10 84.166 10 119.499z" />
    <glyph glyph-name="c" unicode="c" horiz-adv-x="1081" 
d="M621 135c36 0 68.499 4.83301 97.499 14.5s55.167 22.5 78.5 38.5s44 34 62 54s34 40.333 48 61c8.66699 -8 16 -19.833 22 -35.5s9 -33.834 9 -54.501c0 -26.667 -7.83301 -53.834 -23.5 -81.501s-40 -52.667 -73 -75s-74.833 -40.666 -125.5 -54.999
s-111 -21.5 -181 -21.5c-62 0 -120.5 8.66699 -175.5 26s-103 43.666 -144 78.999s-73.5 79.333 -97.5 132s-36 114.667 -36 186c0 50.667 6.33301 103.5 19 158.5s31.667 109 57 162s56.833 103.333 94.5 151s81.5 89.5 131.5 125.5s106 64.667 168 86s130 32 204 32
c56.667 0 105.5 -5.83301 146.5 -17.5s74.667 -27.334 101 -47.001s45.833 -42.667 58.5 -69s19 -54.166 19 -83.499c0 -21.333 -4.5 -42.166 -13.5 -62.499s-23.5 -38.666 -43.5 -54.999s-45.833 -29.5 -77.5 -39.5s-70.167 -15 -115.5 -15
c0 36 -3.16699 70.167 -9.5 102.5s-15.833 60.666 -28.5 84.999s-28.167 43.5 -46.5 57.5s-39.833 21 -64.5 21c-29.333 0 -56.833 -9.83301 -82.5 -29.5s-49.167 -45.667 -70.5 -78s-40.166 -69.333 -56.499 -111s-30.333 -84.667 -42 -129s-20.5 -88 -26.5 -131
s-9 -82.167 -9 -117.5c0 -83.333 19 -148.166 57 -194.499s94.333 -69.5 169 -69.5z" />
    <glyph glyph-name="d" unicode="d" horiz-adv-x="1362" 
d="M393 352c0 -38.667 2.83008 -71.3359 8.49707 -98.0029s13.334 -48.167 23.001 -64.5s21.334 -28.166 35.001 -35.499s28.5 -11 44.5 -11c30 0 60.833 13 92.5 39s61.5 60 89.5 102s53.167 89.667 75.5 143s39.5 107.666 51.5 162.999l72 340
c-14.667 18.667 -34.667 32.834 -60 42.501s-50.333 14.5 -75 14.5c-38.667 0 -74.334 -10.5 -107.001 -31.5s-62.167 -48.667 -88.5 -83s-49.666 -73.666 -69.999 -117.999s-37.166 -90 -50.499 -137s-23.5 -93.667 -30.5 -140s-10.5 -88.166 -10.5 -125.499zM1092 439.998
l-8.50195 -42.4971c-3.66699 -18.333 -7.16699 -37.5 -10.5 -57.5s-6.16602 -39.667 -8.49902 -59s-3.5 -35.333 -3.5 -48c0 -32 7.33301 -55.333 22 -70s31.334 -22 50.001 -22c17.333 0 36.5 4.66699 57.5 14s39.833 19 56.5 29l45 -80
c-18 -14.667 -38.333 -29.334 -61 -44.001s-47.5 -28 -74.5 -40s-56.167 -21.667 -87.5 -29s-64.666 -11 -99.999 -11c-30 0 -57.333 3.5 -82 10.5s-45.834 17.167 -63.501 30.5s-31.334 30.166 -41.001 50.499s-14.5 44.166 -14.5 71.499c0 12.667 0.333008 24 1 34
s1.5 19.833 2.5 29.5s2.33301 20 4 31s3.83398 23.833 6.50098 38.5h-12c-25.333 -52.667 -52 -97.667 -80 -135s-57.833 -68 -89.5 -92s-65.667 -41.5 -102 -52.5s-75.5 -16.5 -117.5 -16.5c-52.667 0 -97.834 10 -135.501 30s-68.667 47 -93 81
s-42.166 73.667 -53.499 119s-17 93.333 -17 144c0 53.333 6.16699 109.166 18.5 167.499s30.666 115.833 54.999 172.5s54.333 110.667 90 162s76.834 96.333 123.501 135s98.5 69.5 155.5 92.5s119.167 34.5 186.5 34.5c40 0 77.333 -4.33301 112 -13
s65.334 -20.667 92.001 -36c2 8.66699 4 18.834 6 30.501s4.16699 23.334 6.5 35.001s4.66602 22.667 6.99902 33l5.5 24.5l18 82l6 27c2 9.33301 3.66699 18.166 5 26.499s2.33301 15.5 3 21.5s1 10.333 1 13c0 18.667 -2 33.667 -6 45s-10.333 20 -19 26s-20 10 -34 12
s-30.667 3 -50 3h-47l19 108h493z" />
    <glyph glyph-name="e" unicode="e" horiz-adv-x="1096" 
d="M618 135c33.333 0 65.001 4.83008 95.001 14.4971s57.833 22.334 83.5 38.001s48.667 33.334 69 53.001s37.833 39.834 52.5 60.501c8 -10 14.333 -22.833 19 -38.5s7 -32.167 7 -49.5c0 -24.667 -8 -50.667 -24 -78s-40.5 -52.5 -73.5 -75.5s-75 -42 -126 -57
s-111.5 -22.5 -181.5 -22.5c-62.667 0 -121.667 8.66699 -177 26s-103.833 43.5 -145.5 78.5s-74.5 79 -98.5 132s-36 115.167 -36 186.5c0 50.667 6.66699 103.667 20 159s33.166 109.5 59.499 162.5s59 103.333 98 151s84.167 89.5 135.5 125.5s108.833 64.5 172.5 85.5
s133.167 31.5 208.5 31.5c98 0 174 -21.167 228 -63.5s81 -101.5 81 -177.5c0 -55.333 -15.333 -108.333 -46 -159s-73 -95.167 -127 -133.5s-118.333 -68.833 -193 -91.5s-156 -34 -244 -34h-37c-13.333 0 -26.333 0.666992 -39 2c-2 -13.333 -3.16699 -26.833 -3.5 -40.5
s-0.5 -26.167 -0.5 -37.5c0 -79.333 18.5 -140.5 55.5 -183.5s92.833 -64.5 167.5 -64.5zM690.001 994.997c-33.333 0 -65 -12.499 -95 -37.499s-57 -57.5 -81 -97.5s-44.667 -84.833 -62 -134.5s-30 -98.834 -38 -147.501h18c50.667 0 97.834 6.66699 141.501 20
s81.667 32.5 114 57.5s57.666 54.833 75.999 89.5s27.5 73.667 27.5 117c0 42 -8.83301 74.667 -26.5 98s-42.5 35 -74.5 35z" />
    <glyph glyph-name="f" unicode="f" horiz-adv-x="827" 
d="M870 958h-260.002l-194 -915c-15.333 -72.667 -35.166 -136.334 -59.499 -191.001s-51.666 -101.834 -81.999 -141.501s-63.166 -72.5 -98.499 -98.5s-71.666 -46.667 -108.999 -62s-75.333 -26.166 -114 -32.499s-76.334 -9.5 -113.001 -9.5c-10 0 -21 0.5 -33 1.5
s-23.667 2.33301 -35 4s-22 3.5 -32 5.5s-18.333 4 -25 6l25 119c11.333 -3.33301 26 -6.66602 44 -9.99902s34.667 -5 50 -5c33.333 0 62.833 5.66699 88.5 17s48.667 30.5 69 57.5s38.666 63.167 54.999 108.5s31.5 102 45.5 170l207 976h-186l20 97l197 43l16 76
c16 67.333 37.333 126.166 64 176.499s59.667 92.333 99 126s85.5 58.834 138.5 75.501s114.167 25 183.5 25c52.667 0 99.167 -4.66699 139.5 -14s74 -22 101 -38s47.333 -34.833 61 -56.5s20.5 -44.834 20.5 -69.501c0 -45.333 -20 -80.666 -60 -105.999
s-98.333 -38 -175 -38c0 26 -1.5 51.167 -4.5 75.5s-8.16699 45.833 -15.5 64.5s-17 33.5 -29 44.5s-27.333 16.5 -46 16.5c-43.333 0 -76.5 -18.667 -99.5 -56s-41.5 -94.333 -55.5 -171l-27 -131h258z" />
    <glyph glyph-name="g" unicode="g" horiz-adv-x="1188" 
d="M182 674c0 47.333 10.5 97.1641 31.5 149.497s52.667 100.333 95 144s95.5 79.667 159.5 108s139.333 42.5 226 42.5c45.333 0 87.833 -5.16699 127.5 -15.5s74.5 -26.833 104.5 -49.5c15.333 19.333 31.666 37.5 48.999 54.5s35.666 31.667 54.999 44
s40 22.166 62 29.499s45.667 11 71 11c42 0 72.667 -10.167 92 -30.5s29 -46.5 29 -78.5c0 -16.667 -2.16699 -33.667 -6.5 -51s-11.5 -33 -21.5 -47s-23.5 -25.333 -40.5 -34s-37.833 -13 -62.5 -13c0 28 -6.16699 49.667 -18.5 65s-30.166 23 -53.499 23
c-18.667 0 -35.667 -3.33301 -51 -10s-29.666 -15.667 -42.999 -27c14.667 -19.333 26.834 -43.666 36.501 -72.999s14.5 -59.666 14.5 -90.999c0 -30 -4.33301 -61.5 -13 -94.5s-21.667 -65.667 -39 -98s-39.333 -63.333 -66 -93s-58.334 -55.834 -95.001 -78.501
s-78.334 -40.667 -125.001 -54s-98.334 -20 -155.001 -20c-6 0 -13.833 0.166992 -23.5 0.5l-29.5 1c-10 0.333008 -19.667 0.833008 -29 1.5s-17 1.66699 -23 3c-32 -14 -58.667 -30.167 -80 -48.5s-32 -38.166 -32 -59.499c0 -11.333 2.83301 -20.666 8.5 -27.999
s13.334 -13.166 23.001 -17.499s21.167 -7.83301 34.5 -10.5s28 -4.66699 44 -6l230 -22c100 -9.33301 177.833 -36.5 233.5 -81.5s83.5 -110.833 83.5 -197.5c0 -62 -14.167 -118.5 -42.5 -169.5s-69.666 -94.5 -123.999 -130.5s-121 -64 -200 -84s-169.167 -30 -270.5 -30
c-83.333 0 -154.5 6.16699 -213.5 18.5s-107.167 29.833 -144.5 52.5s-64.833 50.167 -82.5 82.5s-26.5 68.166 -26.5 107.499c0 36 9.16699 68.667 27.5 98s42.833 54.833 73.5 76.5s65.667 39.834 105 54.501s80 25.667 122 33c-13.333 6.66699 -26.333 15.834 -39 27.501
s-23.834 25 -33.501 40s-17.5 31 -23.5 48s-9 34.5 -9 52.5c0 21.333 4.33301 41.333 13 60s22 37 40 55s41 36.167 69 54.5s61.333 38.166 100 59.499c-45.333 21.333 -80.666 53 -105.999 95s-38 92.333 -38 151zM721 -174.002c0 38.667 -14.832 68.332 -44.499 88.999
s-79.834 34 -150.501 40l-182 16c-30 -4 -58.167 -11.667 -84.5 -23s-49.5 -25.333 -69.5 -42s-35.833 -35.5 -47.5 -56.5s-17.5 -43.167 -17.5 -66.5c0 -21.333 3.83301 -41.166 11.5 -59.499s21 -34.333 40 -48s45 -24.5 78 -32.5s74.5 -12 124.5 -12
c60 0 111.5 5.33301 154.5 16s78.333 25 106 43s48.167 38.833 61.5 62.5s20 48.167 20 73.5zM551.001 511.996c24 0 46.001 5.66699 66.001 17s38 26.333 54 45s30 39.834 42 63.501s21.833 48.167 29.5 73.5s13.5 50.166 17.5 74.499s6 46.5 6 66.5
c0 48 -9.5 83.167 -28.5 105.5s-46.5 33.5 -82.5 33.5c-35.333 0 -66.333 -11.667 -93 -35s-49 -52.333 -67 -87s-31.667 -71.5 -41 -110.5s-14 -74.167 -14 -105.5c0 -50 9.66699 -86 29 -108s46.666 -33 81.999 -33z" />
    <glyph glyph-name="h" unicode="h" horiz-adv-x="1343" 
d="M754 190c0 29.333 2.5 64.335 7.5 105.002s13.167 87 24.5 139l35 162c3.33301 13.333 7.16602 29.666 11.499 48.999s8.33301 39.5 12 60.5s6.83398 42 9.50098 63s4 39.833 4 56.5c0 12.667 -1.16699 26 -3.5 40s-6.5 26.667 -12.5 38s-14.667 20.666 -26 27.999
s-26 11 -44 11c-23.333 0 -46.5 -7.83301 -69.5 -23.5s-45.167 -36.334 -66.5 -62.001s-41.5 -55 -60.5 -88s-36.333 -66.833 -52 -101.5s-29.167 -68.667 -40.5 -102s-20 -63.333 -26 -90l-107 -475h-307l270 1274l6 27c2 9.33301 3.66699 18.166 5 26.499
s2.33301 15.5 3 21.5s1 10.333 1 13c0 18.667 -2 33.667 -6 45s-10.333 20 -19 26s-20 10 -34 12s-30.667 3 -50 3h-43l19 108h495l-96 -450l-17.5 -70l-18.5 -74c-7.33301 -27.333 -14.333 -55 -21 -83h12c26 40.667 52.833 76 80.5 106s57.5 54.833 89.5 74.5
s66.833 34.334 104.5 44.001s79.167 14.5 124.5 14.5c43.333 0 80 -6.33301 110 -19s54.167 -29.834 72.5 -51.501s31.5 -46.667 39.5 -75s12 -58.166 12 -89.499c0 -17.333 -1.33301 -35.833 -4 -55.5s-5.83398 -39.5 -9.50098 -59.5s-7.66699 -40 -12 -60
s-8.16602 -39 -11.499 -57l-47 -219c-8.66699 -37.333 -15.667 -72.166 -21 -104.499s-8 -62.833 -8 -91.5c0 -30 6.33301 -53 19 -69s30.334 -24 53.001 -24c21.333 0 40.833 4 58.5 12s38.5 19.667 62.5 35l49 -69c-16.667 -17.333 -35.334 -34.5 -56.001 -51.5
s-43.834 -32.167 -69.501 -45.5s-54.167 -24 -85.5 -32s-65.666 -12 -102.999 -12c-78 0 -138 18.5 -180 55.5s-63 88.5 -63 154.5z" />
    <glyph glyph-name="i" unicode="i" horiz-adv-x="725" 
d="M621 1098l-141.998 -666c-8 -37.333 -14.667 -72.166 -20 -104.499s-8 -62.833 -8 -91.5c0 -30 6.16699 -53 18.5 -69s29.833 -24 52.5 -24c21.333 0 41 4 59 12s38.667 19.667 62 35l49 -69c-16 -17.333 -34.333 -34.5 -55 -51.5s-44 -32.167 -70 -45.5
s-54.5 -24 -85.5 -32s-65.167 -12 -102.5 -12c-78.667 0 -139 18.5 -181 55.5s-63 88.5 -63 154.5c0 29.333 2.66699 64.333 8 105s13.666 87 24.999 139l80 381c2 8.66699 3.83301 17.667 5.5 27s3.16699 18.166 4.5 26.499s2.33301 15.5 3 21.5s1 10.333 1 13
c0 18.667 -2 33.667 -6 45s-10.333 20 -19 26s-19.834 10 -33.501 12s-30.167 3 -49.5 3h-37l18 109h486zM479.002 1282c-22.667 0 -43.667 2.50195 -63 7.50195s-36.166 12.833 -50.499 23.5s-25.666 24 -33.999 40s-12.5 34.667 -12.5 56c0 30 5.16699 55.5 15.5 76.5
s24.166 38.333 41.499 52s37.666 23.667 60.999 30s47.666 9.5 72.999 9.5c22 0 42.833 -2.33301 62.5 -7s37 -12.334 52 -23.001s27 -24.167 36 -40.5s13.5 -35.833 13.5 -58.5c0 -28 -5.5 -52.5 -16.5 -73.5s-25.667 -38.333 -44 -52s-39.166 -23.834 -62.499 -30.501
s-47.333 -10 -72 -10z" />
    <glyph glyph-name="j" unicode="j" horiz-adv-x="692" 
d="M479 1282c-22.667 0 -43.667 2.50195 -63 7.50195s-36.166 12.833 -50.499 23.5s-25.666 24 -33.999 40s-12.5 34.667 -12.5 56c0 30 5.16699 55.5 15.5 76.5s24.166 38.333 41.499 52s37.666 23.667 60.999 30s47.666 9.5 72.999 9.5c22 0 42.833 -2.33301 62.5 -7
s37 -12.334 52 -23.001s27 -24.167 36 -40.5s13.5 -35.833 13.5 -58.5c0 -28 -5.5 -52.5 -16.5 -73.5s-25.667 -38.333 -44 -52s-39.166 -23.834 -62.499 -30.501s-47.333 -10 -72 -10zM621 1098l-238.002 -1114c-18.667 -91.333 -43.667 -167.5 -75 -228.5
s-67.5 -109.833 -108.5 -146.5s-85.5 -62.667 -133.5 -78s-98 -23 -150 -23c-43.333 0 -80.666 2.33301 -111.999 7s-61.666 10.667 -90.999 18l25 107c10 -3.33301 24.167 -6.66602 42.5 -9.99902s34.833 -5 49.5 -5c32 0 59.833 5.83301 83.5 17.5
s44.834 31.5 63.501 59.5s35.5 65 50.5 111s29.833 103 44.5 171l176 831c2 8.66699 3.83301 17.667 5.5 27s3.16699 18.166 4.5 26.499s2.33301 15.5 3 21.5s1 10.333 1 13c0 18.667 -2 33.667 -6 45s-10.333 20 -19 26s-19.834 10 -33.501 12s-30.167 3 -49.5 3h-37
l18 109h486z" />
    <glyph glyph-name="k" unicode="k" horiz-adv-x="1223" 
d="M438 408l-87.999 -407.995h-307l270 1274l6 27c2 9.33301 3.66699 18.166 5 26.499s2.33301 15.5 3 21.5s1 10.333 1 13c0 18.667 -2 33.667 -6 45s-10.333 20 -19 26s-20 10 -34 12s-30.667 3 -50 3h-43l19 108h495l-108 -499l-31.5 -144.5
c-9 -42.333 -18 -82.5 -27 -120.5l-28 -114l-32.5 -125l319 289c16.667 14.667 30 27.667 40 39s17.833 21.166 23.5 29.499s9.5 15.666 11.5 21.999s3 12.166 3 17.499c0 14.667 -8.33301 25.834 -25 33.501s-40.334 11.5 -71.001 11.5l20 103h516l-20 -103
c-47.333 0 -97 -13.833 -149 -41.5s-111 -71.834 -177 -132.501l-163 -151l153 -334c22 -48 43.333 -86.667 64 -116s40 -52.333 58 -69s34.667 -27.834 50 -33.501s29 -8.5 41 -8.5h8l-22 -109h-105c-50 0 -94.667 3.5 -134 10.5s-74 18.333 -104 34s-55.667 35.667 -77 60
s-39 53.833 -53 88.5l-121 286z" />
    <glyph glyph-name="l" unicode="l" horiz-adv-x="725" 
d="M489 143c21.333 0 41 4 59 12s38.667 19.667 62 35l49 -69c-16 -17.333 -34.333 -34.5 -55 -51.5s-43.834 -32.167 -69.501 -45.5s-54.167 -24 -85.5 -32s-65.666 -12 -102.999 -12c-78.667 0 -139 18.5 -181 55.5s-63 88.5 -63 154.5c0 58.667 11 140 33 244l178 840
l6 27c2 9.33301 3.66699 18.166 5 26.499s2.33301 15.5 3 21.5s1 10.333 1 13c0 18.667 -2 33.667 -6 45s-10.333 20 -19 26s-20 10 -34 12s-30.667 3 -50 3h-43l19 108h495l-244 -1124c-8 -37.333 -14.667 -72.166 -20 -104.499s-8 -62.833 -8 -91.5
c0 -30 6.16699 -53 18.5 -69s29.833 -24 52.5 -24z" />
    <glyph glyph-name="m" unicode="m" horiz-adv-x="1985" 
d="M1638 -14c-78 0 -137.996 18.6738 -179.996 56.0068s-63 89 -63 155c0 28.667 2.5 63.334 7.5 104.001s13.167 87 24.5 139l35 162c3.33301 13.333 7.16602 29.666 11.499 48.999s8.33301 39.5 12 60.5s6.83398 42 9.50098 63s4 39.833 4 56.5
c0 12.667 -1.16699 26 -3.5 40s-6.5 26.667 -12.5 38s-14.333 20.666 -25 27.999s-24.334 11 -41.001 11c-22 0 -43.833 -7.66699 -65.5 -23s-42.834 -35.5 -63.501 -60.5s-40.167 -53.667 -58.5 -86s-35 -65.5 -50 -99.5s-27.833 -67.5 -38.5 -100.5
s-18.334 -62.833 -23.001 -89.5l-16 -86c-2.66699 -14 -5.83398 -33.167 -9.50098 -57.5l-11.5 -78.5l-12 -86c-4 -29.333 -7.5 -56.5 -10.5 -81.5s-5.33301 -46.5 -7 -64.5s-2.5 -29.667 -2.5 -35h-318c0 8 1.16699 22 3.5 42s5.5 43.5 9.5 70.5s8.66699 56.167 14 87.5
l16 94c5.33301 31.333 10.666 61.166 15.999 89.499s10.333 52.833 15 73.5l31 143c2.66699 12.667 5.83398 28.667 9.50098 48l11 60.5c3.66699 21 6.83398 42.167 9.50098 63.5s4 40.333 4 57c0 12.667 -0.666992 25.667 -2 39s-4.16602 25.5 -8.49902 36.5s-11 20 -20 27
s-21.167 10.5 -36.5 10.5c-22.667 0 -45.167 -7 -67.5 -21s-43.833 -32.667 -64.5 -56s-40.334 -50 -59.001 -80s-35.5 -60.833 -50.5 -92.5s-28 -63 -39 -94s-19.167 -59.167 -24.5 -84.5l-115 -514h-307l172 815c2 8.66699 3.83301 17.667 5.5 27
s3.16699 18.166 4.5 26.499s2.33301 15.5 3 21.5s1 10.333 1 13c0 18.667 -2 33.667 -6 45s-10.333 20 -19 26s-19.834 10 -33.501 12s-30.167 3 -49.5 3h-37l18 109h475l-39 -209h15c26.667 41.333 54.167 76.5 82.5 105.5s58.166 52.667 89.499 71
s64.5 31.666 99.5 39.999s72.833 12.5 113.5 12.5c42.667 0 78.334 -6 107.001 -18s51.667 -28.333 69 -49s29.833 -44.334 37.5 -71.001s11.5 -55 11.5 -85v-16h12c25.333 40.667 51.5 76.334 78.5 107.001s56.167 56.167 87.5 76.5s65.333 35.666 102 45.999
s77 15.5 121 15.5c42 0 77.333 -6.33301 106 -19s52 -29.834 70 -51.501s30.833 -46.667 38.5 -75s11.5 -58.166 11.5 -89.499c0 -17.333 -1.33301 -35.833 -4 -55.5s-5.83398 -39.5 -9.50098 -59.5s-7.66699 -40 -12 -60s-8.16602 -39 -11.499 -57l-47 -219
c-8.66699 -36.667 -15.667 -71.334 -21 -104.001s-8 -63.334 -8 -92.001c0 -30 6.33301 -52.833 19 -68.5s30.334 -23.5 53.001 -23.5c21.333 0 40.833 4 58.5 12s38.5 19.667 62.5 35l49 -70c-16.667 -17.333 -35.334 -34.5 -56.001 -51.5s-43.834 -32.167 -69.501 -45.5
s-54.167 -24 -85.5 -32s-65.666 -12 -102.999 -12z" />
    <glyph glyph-name="n" unicode="n" horiz-adv-x="1376" 
d="M786 190c0 58.667 10.999 140.001 32.999 244.001l33 162l10 49l12 60.5c4 21 7.5 42 10.5 63s4.5 39.833 4.5 56.5c0 12.667 -1.16699 26 -3.5 40s-6.66602 26.667 -12.999 38s-15 20.666 -26 27.999s-25.5 11 -43.5 11c-23.333 0 -46.5 -7.83301 -69.5 -23.5
s-45.167 -36.334 -66.5 -62.001s-41.666 -55 -60.999 -88s-36.833 -66.833 -52.5 -101.5s-29.167 -68.667 -40.5 -102s-20 -63.333 -26 -90l-104 -475h-307l172 815c2 8.66699 3.83301 17.667 5.5 27s3.16699 18.166 4.5 26.499s2.33301 15.5 3 21.5s1 10.333 1 13
c0 18.667 -2 33.667 -6 45s-10.333 20 -19 26s-19.834 10 -33.501 12s-30.167 3 -49.5 3h-37l18 109h455l-23 -219h13c26 40.667 52.833 76 80.5 106s57.5 54.833 89.5 74.5s66.833 34.334 104.5 44.001s79.167 14.5 124.5 14.5c43.333 0 79.833 -6.33301 109.5 -19
s53.667 -29.834 72 -51.501s31.5 -46.667 39.5 -75s12 -58.166 12 -89.499c0 -17.333 -1.16699 -35.833 -3.5 -55.5s-5.33301 -39.5 -9 -59.5s-7.66699 -40 -12 -60s-8.16602 -39 -11.499 -57l-46 -219c-8 -37.333 -14.667 -72.166 -20 -104.499s-8 -62.833 -8 -91.5
c0 -30 6.16699 -53 18.5 -69s30.166 -24 53.499 -24c21.333 0 40.833 4 58.5 12s38.167 19.667 61.5 35l49 -69c-16 -17.333 -34.333 -34.5 -55 -51.5s-43.834 -32.167 -69.501 -45.5s-54.167 -24 -85.5 -32s-65.666 -12 -102.999 -12c-78.667 0 -139 18.5 -181 55.5
s-63 88.5 -63 154.5z" />
    <glyph glyph-name="o" unicode="o" horiz-adv-x="1266" 
d="M82 410c0 51.333 5.99707 104.331 17.9971 158.998s30.167 108.334 54.5 161.001s54.833 102.5 91.5 149.5s79.834 88.167 129.501 123.5s106 63.333 169 84s132.833 31 209.5 31c58.667 0 114 -8.16699 166 -24.5s97.333 -41.833 136 -76.5
s69.334 -79.167 92.001 -133.5s34 -119.5 34 -195.5c0 -49.333 -5.66699 -101 -17 -155s-28.833 -107.167 -52.5 -159.5s-53.667 -102.333 -90 -150s-79.166 -89.5 -128.499 -125.5s-105.333 -64.667 -168 -86s-132.667 -32 -210 -32c-64 0 -122.667 8.83301 -176 26.5
s-99 44.334 -137 80.001s-67.667 80.5 -89 134.5s-32 117 -32 189zM552.997 126.998c36.667 0 69.832 10.5 99.499 31.5s56.334 48.667 80.001 83s44.167 73.5 61.5 117.5s31.5 89.333 42.5 136s19.333 92.5 25 137.5s8.5 85.5 8.5 121.5
c0 80.667 -13.833 138.667 -41.5 174s-65.5 53 -113.5 53c-34.667 0 -66.667 -10 -96 -30s-55.833 -46.667 -79.5 -80s-44.5 -71.5 -62.5 -114.5s-33.167 -87.5 -45.5 -133.5s-21.5 -91.833 -27.5 -137.5s-9 -87.5 -9 -125.5c0 -83.333 14 -143 42 -179s66.667 -54 116 -54z
" />
    <glyph glyph-name="p" unicode="p" horiz-adv-x="1276" 
d="M885 733c0 28 -1.83691 55.1641 -5.50391 81.4971s-9.66699 49.833 -18 70.5s-19.666 37.334 -33.999 50.001s-32.166 19 -53.499 19c-22.667 0 -45.167 -6.5 -67.5 -19.5s-44 -30.5 -65 -52.5s-40.667 -47.333 -59 -76s-35 -58.5 -50 -89.5s-28 -62.167 -39 -93.5
s-19.167 -60.666 -24.5 -87.999l-78 -367c6 -6 14 -12.5 24 -19.5s21.333 -13.167 34 -18.5s26.5 -9.83301 41.5 -13.5s30.5 -5.5 46.5 -5.5c36.667 0 70.834 10 102.501 30s60.334 46.667 86.001 80s48.5 71.5 68.5 114.5s36.667 87.5 50 133.5s23.5 91.833 30.5 137.5
s10.5 87.834 10.5 126.501zM-61.0039 -492.003l278.001 1307c2 8.66699 3.83301 17.667 5.5 27s3.16699 18.166 4.5 26.499s2.33301 15.5 3 21.5s1 10.333 1 13c0 18.667 -2 33.667 -6 45s-10.333 20 -19 26s-19.834 10 -33.501 12s-30.167 3 -49.5 3h-37l18 109h441
l-53 -273h14c23.333 42.667 47.333 82 72 118s52 67 82 93s64 46.167 102 60.5s82.333 21.5 133 21.5c44.667 0 85.5 -8 122.5 -24s68.5 -39.667 94.5 -71s46.167 -70 60.5 -116s21.5 -99 21.5 -159c0 -49.333 -5.83301 -102.5 -17.5 -159.5s-29.167 -114 -52.5 -171
s-52.5 -111.833 -87.5 -164.5s-76.167 -99.167 -123.5 -139.5s-100.5 -72.666 -159.5 -96.999s-123.833 -36.5 -194.5 -36.5c-41.333 0 -79.833 4.16699 -115.5 12.5s-66.834 19.833 -93.501 34.5c-0.666992 -10.667 -2 -21.667 -4 -33
c-1.33301 -9.33301 -3 -19.833 -5 -31.5s-4.33301 -23.167 -7 -34.5l-29 -137c-2 -8.66699 -3.83301 -17.667 -5.5 -27s-3.16699 -18.166 -4.5 -26.499s-2.33301 -15.5 -3 -21.5s-1 -10.333 -1 -13c0 -18.667 2 -33.667 6 -45s10.333 -20 19 -26s19.834 -10 33.501 -12
s30.167 -3 49.5 -3h78l-18 -109h-520z" />
    <glyph glyph-name="q" unicode="q" horiz-adv-x="1292" 
d="M393 360c0 -39.333 2.83105 -72.668 8.49805 -100.001s13.334 -49.666 23.001 -66.999s21.334 -30 35.001 -38s28.5 -12 44.5 -12c20.667 0 41.5 6.16699 62.5 18.5s41.833 29.333 62.5 51s40.5 47.167 59.5 76.5s36.333 60.666 52 93.999s29.667 67.833 42 103.5
s21.833 70.834 28.5 105.501l74 338c-9.33301 15.333 -25.666 28.666 -48.999 39.999s-51.333 17 -84 17c-40.667 0 -77.667 -10.667 -111 -32s-63.333 -49.5 -90 -84.5s-49.834 -74.833 -69.501 -119.5s-36 -90.167 -49 -136.5s-22.833 -91.666 -29.5 -135.999
s-10 -83.833 -10 -118.5zM704.998 -82.002c2 10.667 4.66602 23.832 7.99902 39.499l11 51.5l12.5 58.5l12.5 60.5l33 148h-12c-23.333 -44.667 -47.333 -85.167 -72 -121.5s-52.167 -67.5 -82.5 -93.5s-65.166 -46 -104.499 -60s-85.333 -21 -138 -21
c-43.333 0 -82.833 8 -118.5 24s-66.167 39.667 -91.5 71s-45.166 70.333 -59.499 117s-21.5 100.667 -21.5 162c0 53.333 6.5 109.166 19.5 167.499s31.833 115.833 56.5 172.5s55.167 110.667 91.5 162s77.833 96.333 124.5 135s98.167 69.5 154.5 92.5
s117.166 34.5 182.499 34.5c30 0 59.333 -2 88 -6s56 -9.16699 82 -15.5s50 -13.5 72 -21.5s41.667 -16 59 -24l121 67h102l-281 -1327c-4 -17.333 -7.33301 -35.666 -10 -54.999s-4 -35.666 -4 -48.999c0 -24.667 8.33301 -42.5 25 -53.5s44.667 -16.5 84 -16.5h77
l-18 -109h-485z" />
    <glyph glyph-name="r" unicode="r" horiz-adv-x="1128" 
d="M262 918c0 25.333 -8.33496 43.502 -25.002 54.502s-44.334 16.5 -83.001 16.5h-37l18 109h453l-43 -281h10c23.333 49.333 46.833 92.666 70.5 129.999s49.667 68.666 78 93.999s60.5 44.5 96.5 57.5s78 19.5 126 19.5c72.667 0 126.667 -13.667 162 -41s53 -67 53 -119
c0 -70.667 -20.667 -123.334 -62 -158.001s-101.333 -52 -180 -52c0 30.667 -1.5 58.5 -4.5 83.5s-8.33301 46.333 -16 64s-18 31.167 -31 40.5s-29.167 14 -48.5 14s-39.666 -7.83301 -60.999 -23.5s-42.666 -37.167 -63.999 -64.5s-42.166 -59.833 -62.499 -97.5
s-39.833 -78.667 -58.5 -123s-35.667 -90.833 -51 -139.5s-28.333 -98 -39 -148l-78 -354h-309l174 823c2 11.333 4.5 26.333 7.5 45s4.5 35.334 4.5 50.001z" />
    <glyph glyph-name="s" unicode="s" horiz-adv-x="1053" 
d="M457 102c28 0 54.002 3.50293 78.002 10.5029s44.667 17 62 30s31 29 41 48s15 40.833 15 65.5c0 23.333 -4.5 44 -13.5 62s-23 34.833 -42 50.5s-43 31.167 -72 46.5s-63.5 32.666 -103.5 51.999c-40 18.667 -76.167 38.667 -108.5 60s-59.833 45 -82.5 71
s-40.167 55 -52.5 87s-18.5 68 -18.5 108c0 50 10.667 95 32 135s52 74.167 92 102.5s88.5 50 145.5 65s121.5 22.5 193.5 22.5c68.667 0 126.834 -5.33301 174.501 -16s86.334 -24.834 116.001 -42.501s51 -38.167 64 -61.5s19.5 -47.333 19.5 -72
c0 -54.667 -21 -94.334 -63 -119.001s-99.333 -37 -172 -37c0 27.333 -2.66699 54.833 -8 82.5s-14.333 52.834 -27 75.501s-29 41 -49 55s-44.667 21 -74 21c-26.667 0 -50.5 -3.83301 -71.5 -11.5s-39 -18 -54 -31s-26.5 -28.167 -34.5 -45.5s-12 -36 -12 -56
c0 -22.667 4.5 -42.334 13.5 -59.001s23 -32.334 42 -47.001s43.167 -29.167 72.5 -43.5l104 -48.5c44 -20 82 -41.167 114 -63.5s58.5 -46.666 79.5 -72.999s36.667 -55 47 -86s15.5 -65.5 15.5 -103.5c0 -55.333 -10.5 -105 -31.5 -149s-52.5 -81.333 -94.5 -112
s-94 -54.167 -156 -70.5s-134 -24.5 -216 -24.5c-58.667 0 -111.834 5 -159.501 15s-88.334 24.667 -122.001 44s-59.667 43 -78 71s-27.5 59.667 -27.5 95c0 32 6.33301 59 19 81s29.167 39.833 49.5 53.5s43.666 23.667 69.999 30s53.166 9.5 80.499 9.5
c0 -36.667 3.66699 -71.667 11 -105s19 -62.833 35 -88.5s36.833 -46 62.5 -61s57.167 -22.5 94.5 -22.5z" />
    <glyph glyph-name="t" unicode="t" horiz-adv-x="854" 
d="M553 147c32 0 60.998 5.32715 86.998 15.9941s50.333 23.334 73 38.001l47 -78c-22.667 -19.333 -46.5 -37.666 -71.5 -54.999s-52.167 -32.5 -81.5 -45.5s-60.833 -23.333 -94.5 -31s-70.167 -11.5 -109.5 -11.5c-37.333 0 -72.166 4.83301 -104.499 14.5
s-60.5 24.334 -84.5 44.001s-42.833 44.5 -56.5 74.5s-20.5 65.333 -20.5 106c0 12 0.5 25.333 1.5 40s2.5 29.667 4.5 45s4.33301 30.5 7 45.5s5.33398 28.833 8.00098 41.5l123 567h-158l22 105c29.333 0 61.333 5 96 15s70.167 26.333 106.5 49
s72.666 52.334 108.999 89.001s70.5 81.334 102.5 134.001h119l-53 -252h247l-28 -140h-250l-123 -561c-7.33301 -30 -12.5 -57.167 -15.5 -81.5s-4.5 -46.166 -4.5 -65.499c0 -34 9.33301 -59.667 28 -77s43.334 -26 74.001 -26z" />
    <glyph glyph-name="u" unicode="u" horiz-adv-x="1378" 
d="M793 176c0 6 0.334961 12.9971 1.00195 20.9971s1.5 16.333 2.5 25s2 16.834 3 24.501s2.16699 14.167 3.5 19.5h-17c-30 -42.667 -59.5 -81.334 -88.5 -116.001s-59.833 -64.5 -92.5 -89.5s-68 -44.333 -106 -58s-81.333 -20.5 -130 -20.5c-44 0 -81 6.16699 -111 18.5
s-54 28.833 -72 49.5s-31 44.834 -39 72.501s-12 56.5 -12 86.5c0 34 4 71.333 12 112l23 113l74 361c5.33301 28 9.66602 53.333 12.999 76s5 39.667 5 51c0 27.333 -8.33301 45.333 -25 54s-44.334 13 -83.001 13h-37l18 109h492l-135 -613c-4 -16 -8 -34 -12 -54
s-7.66699 -40 -11 -60s-6.16602 -39 -8.49902 -57s-3.5 -33.333 -3.5 -46c0 -30 6.33301 -53.833 19 -71.5s35.667 -26.5 69 -26.5c30 0 60.833 13.5 92.5 40.5s62 62 91 105s54.833 91 77.5 144s40 105.167 52 156.5l109 482h305l-139 -666
c-8.66699 -37.333 -15.667 -72.166 -21 -104.499s-8 -62.833 -8 -91.5c0 -30 6.16699 -53 18.5 -69s30.166 -24 53.499 -24c21.333 0 40.833 4 58.5 12s38.167 19.667 61.5 35l50 -69c-16.667 -17.333 -35.334 -34.5 -56.001 -51.5s-43.834 -32.167 -69.501 -45.5
s-54.167 -24 -85.5 -32s-65.666 -12 -102.999 -12c-45.333 0 -83.166 5.16699 -113.499 15.5s-54.833 24.333 -73.5 42s-32 38.334 -40 62.001s-12 49.167 -12 76.5z" />
    <glyph glyph-name="v" unicode="v" horiz-adv-x="1200" 
d="M195 881c-4 21.333 -9.83398 38.9971 -17.501 52.9971s-17.334 25 -29.001 33s-25.5 13.667 -41.5 17s-34 5 -54 5h-20l24 109h402l94 -606c10 -69.333 17.167 -131.166 21.5 -185.499s8.16602 -98.5 11.499 -132.5h6c46.667 48 91.334 99.667 134.001 155
s80.334 110.833 113.001 166.5s58.667 109.667 78 162s29 99.5 29 141.5c0 46 -13 79.667 -39 101s-58 32 -96 32c0 56 15.333 100.667 46 134s72 50 124 50c21.333 0 41.333 -3.5 60 -10.5s35 -18.167 49 -33.5s25 -35 33 -59s12 -53 12 -87
c0 -53.333 -8.66699 -109 -26 -167s-40.166 -116.167 -68.499 -174.5s-60.833 -115.666 -97.5 -171.999s-74.5 -109.666 -113.5 -159.999s-77.5 -97 -115.5 -140s-72.667 -79.833 -104 -110.5l-270 -20z" />
    <glyph glyph-name="w" unicode="w" horiz-adv-x="1792" 
d="M1745 944c0 -70.667 -14.999 -145.333 -44.999 -224s-70 -158.834 -120 -240.501s-107.333 -163 -172 -244s-131.334 -158.833 -200.001 -233.5l-250 -22c0 42 -0.5 87.5 -1.5 136.5l-3 151.5l-3 156c-1 52 -2.16699 101.667 -3.5 149s-2.66602 91 -3.99902 131
s-2.33301 74.333 -3 103c-53.333 -126.667 -114.333 -258.167 -183 -394.5s-148.334 -271.833 -239.001 -406.5l-268 -18l-21 852c-0.666992 31.333 -4.66699 56.666 -12 75.999s-17.166 34.5 -29.499 45.5s-27 18.333 -44 22s-35.5 5.5 -55.5 5.5h-12l33 109h395
c4 -68 7.66699 -135.833 11 -203.5s6 -131 8 -190s3.66699 -112 5 -159s2 -84.167 2 -111.5c0 -52 -0.333008 -93.833 -1 -125.5s-1 -49.167 -1 -52.5h15c34 54 68 113 102 177s67.667 131.333 101 202s66 143.5 98 218.5l92 225.5l250 8c4 -34 7.83301 -75.667 11.5 -125
s7.16699 -102 10.5 -158s6.5 -113.333 9.5 -172s5.66699 -114.167 8 -166.5s4.16602 -99.666 5.49902 -141.999s2 -75.166 2 -98.499h14c60 74 109.667 140.833 149 200.5s70.5 114.167 93.5 163.5s39.167 94 48.5 134s14 77 14 111c0 20 -3 38 -9 54
s-13.667 29.833 -23 41.5s-20.166 21 -32.499 28s-24.833 12.167 -37.5 15.5c2 26 7.5 48.167 16.5 66.5s20.333 33.333 34 45s29.167 20.167 46.5 25.5s35.666 8 54.999 8c45.333 0 80.5 -15 105.5 -45s37.5 -73 37.5 -129z" />
    <glyph glyph-name="x" unicode="x" horiz-adv-x="1237" 
d="M-41 0l21 109.003h26c19.333 0 36.833 1.5 52.5 4.5s31.334 9.16699 47.001 18.5s32.834 22.666 51.501 39.999s40.667 40 66 68l258 284l-141 340c-10.667 26 -21.167 47 -31.5 63s-21.5 28.667 -33.5 38s-25.333 15.666 -40 18.999s-31.667 5 -51 5h-24l20 109h385
l144 -389l284 389h250l-20 -109h-37c-20 0 -37.833 -2 -53.5 -6s-31.334 -11.5 -47.001 -22.5s-32.334 -26 -50.001 -45s-38.5 -43.5 -62.5 -73.5l-211 -244l149 -344c12.667 -28.667 24.5 -52.334 35.5 -71.001s22.5 -33.5 34.5 -44.5s25.333 -18.667 40 -23
s32 -6.5 52 -6.5h27l-21 -109h-397l-154 414l-319 -414h-250z" />
    <glyph glyph-name="y" unicode="y" horiz-adv-x="1200" 
d="M160 881c-11.333 40.667 -27.833 68.8379 -49.5 84.5049s-52.5 23.5 -92.5 23.5h-20l25 109h401l135 -531c6.66699 -26.667 13.667 -57.834 21 -93.501l21 -107c6.66699 -35.667 12.334 -69 17.001 -100s7.66699 -54.833 9 -71.5h6c40.667 54.667 79 109.667 115 165
s67.5 109.166 94.5 161.499s48.333 102.166 64 149.499s23.5 90.666 23.5 129.999c0 46 -11.167 81 -33.5 105s-53.5 36 -93.5 36c0 26.667 4.16699 50.834 12.5 72.501s19.833 40.167 34.5 55.5s32 27.166 52 35.499s41.667 12.5 65 12.5
c55.333 0 97.166 -15.333 125.499 -46s42.5 -73.334 42.5 -128.001c0 -53.333 -9 -109.666 -27 -168.999s-43.667 -122.333 -77 -189s-73.833 -137.334 -121.5 -212.001s-101.5 -153.667 -161.5 -237l-139 -191c-43.333 -58 -85.833 -110.333 -127.5 -157
s-84 -87.5 -127 -122.5s-88.667 -64.333 -137 -88s-101 -41.334 -158 -53.001s-120.5 -17.5 -190.5 -17.5c-39.333 0 -77.5 3.33301 -114.5 10s-69.833 15.667 -98.5 27l31 115c16 -5.33301 38.5 -11.166 67.5 -17.499s64.5 -9.5 106.5 -9.5c62.667 0 120 8.33301 172 25
s100.167 39.167 144.5 67.5s86 61.5 125 99.5s76.833 78.667 113.5 122z" />
    <glyph glyph-name="z" unicode="z" horiz-adv-x="1143" 
d="M715 139c23.333 0 44 5.5 62 16.5s33.833 25.333 47.5 43s25.834 37.5 36.501 59.5s20.667 44 30 66l20 47h119l-88 -371h-942l23 104l684 854h-261c-27.333 0 -50.333 -4.5 -69 -13.5s-35.167 -21.5 -49.5 -37.5s-27.333 -35.333 -39 -58s-23.834 -47.667 -36.501 -75
l-4 -8h-125l90 332h879l-23 -107l-686 -852h332z" />
    <glyph glyph-name="braceleft" unicode="{" horiz-adv-x="905" 
d="M487 -256c-97.333 0 -170.333 19.6621 -219 58.9951s-73 94 -73 164c0 6 0.166992 12.667 0.5 20s1.16602 16.333 2.49902 27s3.33301 23.834 6 39.501s6.33398 34.834 11.001 57.501l61 286c4.66699 19.333 7 38 7 56c0 26.667 -5.16699 48.667 -15.5 66
s-24.666 31.166 -42.999 41.499s-39.833 17.5 -64.5 21.5s-51.334 6.66699 -80.001 8l26 125c34 0.666992 66.167 3.83398 96.5 9.50098s57.666 15.5 81.999 29.5s45.166 33.167 62.499 57.5s30 55.5 38 93.5l74 352c10.667 51.333 26 95.833 46 133.5
s46.167 68.667 78.5 93s72.166 42.5 119.499 54.5s103.666 18 168.999 18h195l-23 -108h-79c-29.333 0 -54.166 -4.33301 -74.499 -13s-37.666 -21.334 -51.999 -38.001s-26.166 -37.5 -35.499 -62.5s-17.666 -53.5 -24.999 -85.5l-76 -348
c-13.333 -62 -41.5 -112.833 -84.5 -152.5s-106.167 -68.5 -189.5 -86.5l-4 -17c62 -16.667 107.5 -40.167 136.5 -70.5s43.5 -68.166 43.5 -113.499c0 -18 -2 -37.333 -6 -58l-76 -350c-4 -17.333 -6.66699 -33.666 -8 -48.999s-2 -29.666 -2 -42.999
c0 -35.333 8.66699 -62.166 26 -80.499s47 -27.5 89 -27.5h80l-25 -109h-195z" />
    <glyph glyph-name="bar" unicode="|" 
d="M678 -492h-148v2048h148v-2048z" />
    <glyph glyph-name="braceright" unicode="}" horiz-adv-x="905" 
d="M469 1559c98 0 171.335 -19.6709 220.002 -59.0039s73 -94.333 73 -165c0 -6 -0.166992 -12.667 -0.5 -20s-1.33301 -16.333 -3 -27s-3.83398 -23.667 -6.50098 -39s-6.33398 -34.333 -11.001 -57l-61 -287c-4 -20 -6 -38.333 -6 -55
c0 -27.333 5.16699 -49.666 15.5 -66.999s24.666 -31 42.999 -41s39.833 -17.167 64.5 -21.5s51.334 -6.83301 80.001 -7.5l-27 -125c-34 -1.33301 -66 -4.66602 -96 -9.99902s-57.167 -15 -81.5 -29s-45.333 -33.167 -63 -57.5s-30.5 -55.833 -38.5 -94.5l-73 -352
c-10.667 -51.333 -26 -95.833 -46 -133.5s-46.333 -68.667 -79 -93s-72.667 -42.5 -120 -54.5s-103.666 -18 -168.999 -18h-195l23 109h80c29.333 0 54.166 4.33301 74.499 13s37.666 21.334 51.999 38.001s26 37.334 35 62.001s17.167 53 24.5 85l76 348
c13.333 62 41.5 112.833 84.5 152.5s106.167 68.834 189.5 87.501l4 16c-61.333 16.667 -106.666 40.334 -135.999 71.001s-44 68.667 -44 114c0 18 2 37 6 57l76 350c4 17.333 6.66699 33.666 8 48.999s2 29.666 2 42.999c0 35.333 -8.5 62.333 -25.5 81s-46.5 28 -88.5 28
h-80l24 109h195z" />
    <glyph glyph-name="asciitilde" unicode="~" horiz-adv-x="1149" 
d="M528 664c-24.667 10.667 -46.1641 19.4961 -64.4971 26.4961s-35 12.667 -50 17s-29.333 7.33301 -43 9s-27.834 2.5 -42.501 2.5c-19.333 0 -38.833 -3.16699 -58.5 -9.5s-39.334 -14.833 -59.001 -25.5s-38.834 -23.5 -57.501 -38.5s-36.334 -30.833 -53.001 -47.5v158
c66.667 72 149.334 108 248.001 108c19.333 0 37.333 -0.833008 54 -2.5s34.167 -4.66699 52.5 -9s38.666 -10.666 60.999 -18.999s49.166 -19.166 80.499 -32.499l64.5 -27c18.333 -7.33301 35.333 -13.166 51 -17.499s30.167 -7.33301 43.5 -9s27.333 -2.5 42 -2.5
c18.667 0 38 3.16699 58 9.5s39.667 15 59 26s38.333 23.833 57 38.5s36.334 30.334 53.001 47.001v-157c-33.333 -36 -70.333 -63.167 -111 -81.5s-86.334 -27.5 -137.001 -27.5c-19.333 0 -37.333 0.833008 -54 2.5s-34.167 4.83398 -52.5 9.50098
s-38.666 11.167 -60.999 19.5s-49.166 19.166 -80.499 32.499z" />
    <glyph glyph-name="nonbreakingspace" unicode="&#xa0;" horiz-adv-x="532" 
 />
    <glyph glyph-name="exclamdown" unicode="&#xa1;" horiz-adv-x="809" 
d="M381 -367h-356l354 996h119zM309 928c0 34 5.16602 62.834 15.499 86.501s24 42.667 41 57s36.167 24.666 57.5 30.999s42.666 9.5 63.999 9.5c50 0 90.167 -12 120.5 -36s45.5 -61 45.5 -111c0 -28 -4.16699 -53.333 -12.5 -76s-20.166 -42 -35.499 -58
s-34 -28.5 -56 -37.5s-46.667 -13.5 -74 -13.5c-23.333 0 -45.166 3 -65.499 9s-38 15 -53 27s-26.667 27.333 -35 46s-12.5 40.667 -12.5 66z" />
    <glyph glyph-name="cent" unicode="&#xa2;" 
d="M692 324c39.333 0 74.667 4.83398 106 14.501s59.5 22.5 84.5 38.5s47.167 34 66.5 54s36.666 40.333 51.999 61c8.66699 -8.66699 16.334 -20.834 23.001 -36.501s10 -33.834 10 -54.501c0 -25.333 -7.66699 -51.333 -23 -78s-39 -51.167 -71 -73.5
s-72.667 -41 -122 -56s-107.666 -23.5 -174.999 -25.5l-35 -168h-127l37 174c-54 8 -104.333 22.5 -151 43.5s-87 48.833 -121 83.5s-60.667 76.167 -80 124.5s-29 103.833 -29 166.5c0 47.333 5.83301 96.833 17.5 148.5s29.167 102.834 52.5 153.501
s52.5 99.167 87.5 145.5s75.5 88.166 121.5 125.499s97.5 68.5 154.5 93.5s119.5 41.167 187.5 48.5l33 155h127l-33 -151c51.333 -3.33301 95.5 -11.333 132.5 -24s67.333 -28.667 91 -48s41.167 -41.333 52.5 -66s17 -50.334 17 -77.001
c0 -21.333 -4.66699 -42.166 -14 -62.499s-24 -38.666 -44 -54.999s-45.833 -29.5 -77.5 -39.5s-69.834 -15 -114.501 -15c0 49.333 -6.33301 94.333 -19 135s-31.667 72.667 -57 96l-176 -831h16zM451.001 588.001c0 -56 8.83301 -103.499 26.5 -142.499
s44.167 -68.833 79.5 -89.5l174 830c-29.333 -6.66699 -56.5 -21.5 -81.5 -44.5s-47.833 -51.167 -68.5 -84.5s-39 -70.333 -55 -111s-29.667 -82 -41 -124s-19.833 -83.333 -25.5 -124s-8.5 -77.334 -8.5 -110.001z" />
    <glyph glyph-name="sterling" unicode="&#xa3;" 
d="M600 711c0.666992 -5.33301 1.33301 -11.9971 2 -19.9971s1.33398 -16.667 2.00098 -26s1.16699 -19 1.5 -29s0.5 -19.333 0.5 -28c0 -42 -6.66699 -80.167 -20 -114.5s-32.666 -66 -57.999 -95s-56.333 -56 -93 -81s-78.667 -48.833 -126 -71.5l2 -8
c36 13.333 68.667 22.666 98 27.999s57 8 83 8c30.667 0 62.334 -3.83301 95.001 -11.5s64.5 -16 95.5 -25l88 -25c27.667 -7.66699 52.167 -11.5 73.5 -11.5c23.333 0 44 1.5 62 4.5s34.833 7.66699 50.5 14s31.167 14.5 46.5 24.5s32 22.333 50 37l65 -103
c-16 -16.667 -37.333 -36.334 -64 -59.001s-56.167 -44.334 -88.5 -65.001s-66.5 -38.167 -102.5 -52.5s-71 -21.5 -105 -21.5s-67.167 4.83301 -99.5 14.5s-65.333 20.5 -99 32.5s-68.834 22.833 -105.501 32.5s-76 14.5 -118 14.5c-27.333 0 -52.5 -1.16699 -75.5 -3.5
s-45 -6 -66 -11s-42 -11.5 -63 -19.5s-42.833 -17.333 -65.5 -28l-33 -14l-45 108l69 44c34 20 68.167 43.833 102.5 71.5s65.333 59.167 93 94.5s50.167 74.833 67.5 118.5s26 91.5 26 143.5c0 22.667 -1.16699 44.834 -3.5 66.501s-5.16602 43.167 -8.49902 64.5h-236
l29 125h192c-4 25.333 -8.33301 55.666 -13 90.999s-7 69.666 -7 102.999c0 72 12.667 136.333 38 193s61.166 104.334 107.499 143.001s102.333 68.167 168 88.5s138.5 30.5 218.5 30.5c58 0 109.333 -5.83301 154 -17.5s82.167 -27.667 112.5 -48s53.333 -44 69 -71
s23.5 -55.833 23.5 -86.5c0 -58.667 -22 -103.5 -66 -134.5s-107.333 -46.5 -190 -46.5c0 93.333 -13.333 163.166 -40 209.499s-63.334 69.5 -110.001 69.5c-68.667 0 -121.334 -28.667 -158.001 -86s-55 -138.666 -55 -243.999c0 -40 2.33301 -76.5 7 -109.5l12 -84.5h364
l-28 -125z" />
    <glyph glyph-name="currency" unicode="&#xa4;" 
d="M227 729c0 39.333 5.66797 77.167 17.001 113.5s27.666 69.5 48.999 99.5l-123 123l102 102l123 -123c30 19.333 62.167 34.5 96.5 45.5s71.166 16.5 110.499 16.5c38 0 74.5 -5.5 109.5 -16.5s67.5 -26.833 97.5 -47.5l127 127l102 -104l-125 -127
c20.667 -30 36.834 -62.5 48.501 -97.5s17.5 -72.167 17.5 -111.5s-5.33301 -76.166 -16 -110.499s-25.667 -66.5 -45 -96.5l120 -121l-102 -102l-121 121c-30.667 -20.667 -64 -36.834 -100 -48.501s-73.667 -17.5 -113 -17.5s-76.833 5.5 -112.5 16.5
s-68.5 26.833 -98.5 47.5l-119 -119l-104 104l119 119c-40 61.333 -60 130.333 -60 207zM367.001 729.001c0 -32.667 6.16699 -63.334 18.5 -92.001s29 -53.834 50 -75.501s45.833 -38.667 74.5 -51s59.334 -18.5 92.001 -18.5c34 0 65.333 6.16699 94 18.5
s53.5 29.333 74.5 51s37.5 46.834 49.5 75.501s18 59.334 18 92.001c0 34 -6 65.5 -18 94.5s-28.5 54.333 -49.5 76s-45.833 38.667 -74.5 51s-60 18.5 -94 18.5c-32.667 0 -63.334 -6.16699 -92.001 -18.5s-53.5 -29.333 -74.5 -51s-37.667 -47 -50 -76
s-18.5 -60.5 -18.5 -94.5z" />
    <glyph glyph-name="yen" unicode="&#xa5;" horiz-adv-x="1104" 
d="M762 698l262.002 -0.00292969l-25 -120h-286l-27 -119h287l-25 -121h-286l-23 -98c-3.33301 -14.667 -5.83301 -27.334 -7.5 -38.001s-2.5 -18.667 -2.5 -24c0 -14.667 3.66699 -26.5 11 -35.5s17.5 -16 30.5 -21s28.5 -8.33301 46.5 -10s37.667 -2.5 59 -2.5h49
l-22 -109h-733l22 109h55c21.333 0 42 1.5 62 4.5s38.333 9 55 18s31 21.5 43 37.5s21 37.333 27 64l22 105h-286l24 121h287l27 119h-287l24 120h271l-125 547c-4.66699 20.667 -9.33398 37.834 -14.001 51.501s-10.834 24.834 -18.501 33.501s-17.667 14.834 -30 18.501
s-28.5 5.5 -48.5 5.5h-26l22 108h559l-22 -108h-58c-30.667 0 -52.667 -5.33301 -66 -16s-20 -25.334 -20 -44.001c0 -12 2.66699 -30.5 8 -55.5s11 -53.5 17 -85.5l37 -195c8 -43.333 15.167 -85 21.5 -125s9.5 -74 9.5 -102c7.33301 18.667 18 41 32 67
s29.667 53.667 47 83l158 266c14.667 24.667 28.667 50.334 42 77.001s20 51.334 20 74.001c0 18.667 -7.66699 32.667 -23 42s-34.333 14 -57 14h-41l24 108h434l-22 -108h-6c-31.333 0 -61.833 -13 -91.5 -39s-62.167 -66.333 -97.5 -121z" />
    <glyph glyph-name="brokenbar" unicode="&#xa6;" 
d="M676 737h-148v819h148v-819zM676 -492h-148v820h148v-820z" />
    <glyph glyph-name="section" unicode="&#xa7;" horiz-adv-x="1114" 
d="M444 -236c-62 0 -117.667 6.01172 -167 18.0117s-91.166 28.833 -125.499 50.5s-60.666 47.667 -78.999 78s-27.5 63.5 -27.5 99.5c0 34.667 6.33301 63.167 19 85.5s28.667 39.666 48 51.999s40.333 20.833 63 25.5s43.667 7 63 7c0 -43.333 5.16699 -83.333 15.5 -120
s25.333 -68.334 45 -95.001s43.667 -47.667 72 -63s60.5 -23 96.5 -23c35.333 0 67.166 5.66699 95.499 17s52.333 26.666 72 45.999s34.834 42.333 45.501 69s16 55 16 85c0 27.333 -3.66699 51.833 -11 73.5s-21 43 -41 64s-47.333 42.833 -82 65.5
s-79.334 48.667 -134.001 78c-52 27.333 -95 54.666 -129 81.999s-61 55 -81 83s-34 57 -42 87s-12 61.333 -12 94c0 33.333 5.5 63.833 16.5 91.5s25.5 53 43.5 76s38.5 43.667 61.5 62s46.5 34.5 70.5 48.5c-12 19.333 -23.167 44.666 -33.5 75.999
s-15.5 67.666 -15.5 108.999c0 58.667 11.833 111 35.5 157s55.667 84.667 96 116s87.166 55.333 140.499 72s109.666 25 168.999 25c62 0 115.5 -5.83301 160.5 -17.5s82.333 -27.5 112 -47.5s51.667 -43.5 66 -70.5s21.5 -55.5 21.5 -85.5
c0 -29.333 -4.83301 -53.833 -14.5 -73.5s-23.5 -35.334 -41.5 -47.001s-39.5 -20 -64.5 -25s-52.5 -7.5 -82.5 -7.5c0 36.667 -3.83301 71 -11.5 103s-19 59.667 -34 83s-33.5 41.833 -55.5 55.5s-47 20.5 -75 20.5c-24.667 0 -49.167 -4 -73.5 -12
s-46.333 -20.333 -66 -37s-35.5 -37.834 -47.5 -63.501s-18 -55.834 -18 -90.501c0 -30 4.16699 -56.167 12.5 -78.5s22.166 -43.333 41.499 -63s44.833 -39.167 76.5 -58.5s70.834 -41.333 117.501 -66c50 -26.667 92.333 -52.5 127 -77.5s62.834 -50.333 84.501 -76
s37.167 -52 46.5 -79s14 -56.167 14 -87.5c0 -32 -5.16699 -62.333 -15.5 -91s-24.5 -55.834 -42.5 -81.501s-38.833 -49.334 -62.5 -71.001s-48.834 -40.834 -75.501 -57.501c12 -19.333 22.833 -43.5 32.5 -72.5s14.5 -61.5 14.5 -97.5c0 -58 -10.667 -112.5 -32 -163.5
s-51.666 -95.5 -90.999 -133.5s-86.833 -68 -142.5 -90s-117.5 -33 -185.5 -33zM639 784.012c-44 20.667 -84.1641 41.501 -120.497 62.501s-69.833 43.833 -100.5 68.5c-21.333 -16 -39 -33.833 -53 -53.5s-21 -44.167 -21 -73.5c0 -22 3.66699 -42.333 11 -61
s19.666 -36.834 36.999 -54.501s40.833 -35.667 70.5 -54s67.167 -38.166 112.5 -59.499c38 -18.667 75.167 -38.667 111.5 -60s66.166 -41.666 89.499 -60.999c21.333 17.333 38.333 37.5 51 60.5s19 48.5 19 76.5c0 15.333 -3 31.333 -9 48s-16.833 33.667 -32.5 51
s-36.834 35.166 -63.501 53.499s-60.667 37.166 -102 56.499z" />
    <glyph glyph-name="dieresis" unicode="&#xa8;" horiz-adv-x="1182" 
d="M616 1417c0 -26.667 -3.66699 -49 -11 -67s-16.666 -32.667 -27.999 -44s-24.333 -19.5 -39 -24.5s-29.334 -7.5 -44.001 -7.5c-34 0 -61.333 9.16699 -82 27.5s-31 46.5 -31 84.5c0 44 11 79 33 105s52 39 90 39c32.667 0 59.5 -9.33301 80.5 -28s31.5 -47 31.5 -85z
M1044 1417c0 -26.667 -3.66699 -49 -11 -67s-16.666 -32.667 -27.999 -44s-24.333 -19.5 -39 -24.5s-29.334 -7.5 -44.001 -7.5c-34 0 -61.333 9.16699 -82 27.5s-31 46.5 -31 84.5c0 44 11 79 33 105s52 39 90 39c32.667 0 59.5 -9.33301 80.5 -28s31.5 -47 31.5 -85z" />
    <glyph glyph-name="copyright" unicode="&#xa9;" horiz-adv-x="1731" 
d="M129 731c0 69.333 9 136.166 27 200.499s43.167 124.333 75.5 180s71.5 106.5 117.5 152.5s96.833 85.333 152.5 118s115.5 58 179.5 76s130.667 27 200 27s136 -9 200 -27s123.833 -43.333 179.5 -76s106.5 -72 152.5 -118s85.333 -96.833 118 -152.5
s58 -115.667 76 -180s27 -131.166 27 -200.499s-9 -136 -27 -200s-43.333 -123.833 -76 -179.5s-72 -106.334 -118 -152.001s-96.833 -84.834 -152.5 -117.501s-115.5 -57.834 -179.5 -75.501s-130.667 -26.5 -200 -26.5s-136 8.83301 -200 26.5
s-123.833 42.834 -179.5 75.501s-106.5 71.834 -152.5 117.501s-85.167 96.334 -117.5 152.001s-57.5 115.5 -75.5 179.5s-27 130.667 -27 200zM242 731c0 -58.667 7.66895 -115.166 23.002 -169.499s36.833 -105.166 64.5 -152.499s60.834 -90.5 99.501 -129.5
s81.667 -72.333 129 -100s98.333 -49.167 153 -64.5s111.334 -23 170.001 -23c59.333 0 116.166 7.66699 170.499 23s105.333 36.833 153 64.5s91 61 130 100s72.333 82.167 100 129.5s49.167 98.166 64.5 152.499s23 110.833 23 169.5
c0 88.667 -16.833 171.834 -50.5 249.501s-79.5 145.5 -137.5 203.5s-125.833 103.833 -203.5 137.5s-160.834 50.5 -249.501 50.5c-58.667 0 -115.334 -7.66699 -170.001 -23s-105.667 -36.833 -153 -64.5s-90.333 -61 -129 -100s-71.834 -82.333 -99.501 -130
s-49.167 -98.834 -64.5 -153.501s-23 -111.334 -23 -170.001zM918.002 365.001c30.667 0 59.3311 4.00195 85.998 12.002s50.834 18.667 72.501 32s40.167 28.166 55.5 44.499s27.666 33.166 36.999 50.499c8.66699 -6 15.667 -14.5 21 -25.5s8 -23.833 8 -38.5
c0 -18.667 -6.33301 -37.667 -19 -57s-31.834 -37 -57.501 -53s-57.667 -29 -96 -39s-83.166 -15 -134.499 -15c-68 0 -127.667 11 -179 33s-94.166 53 -128.499 93s-60 88 -77 144s-25.5 118.333 -25.5 187c0 66.667 9.33301 127.667 28 183s46.5 103 83.5 143
s82.833 71.167 137.5 93.5s118 33.5 190 33.5c46.667 0 87.667 -3.83301 123 -11.5s64.5 -18 87.5 -31s40.333 -28.333 52 -46s17.5 -36.834 17.5 -57.501c0 -14.667 -3.66699 -28 -11 -40s-17.166 -22.167 -29.499 -30.5s-27 -14.666 -44 -18.999s-35.167 -6.5 -54.5 -6.5
c0 18.667 -2.5 37.334 -7.5 56.001s-13.167 35.5 -24.5 50.5s-26.333 27 -45 36s-41.667 13.5 -69 13.5c-48 0 -88.833 -8 -122.5 -24s-61.167 -39.667 -82.5 -71s-36.833 -69.833 -46.5 -115.5s-14.5 -97.834 -14.5 -156.501c0 -118 23 -208.833 69 -272.5
s112.667 -95.5 200 -95.5z" />
    <glyph glyph-name="ordfeminine" unicode="&#xaa;" horiz-adv-x="883" 
d="M772 782c-45.333 0 -80.499 9.16992 -105.499 27.5029s-37.5 43.5 -37.5 75.5c0 16.667 1.16699 35.667 3.5 57s4.5 39.666 6.5 54.999h-8c-17.333 -32 -35.833 -61 -55.5 -87s-40.834 -48.333 -63.501 -67s-47.167 -33.167 -73.5 -43.5s-54.5 -15.5 -84.5 -15.5
c-34 0 -63.5 5.83301 -88.5 17.5s-45.667 27.667 -62 48s-28.333 44.166 -36 71.499s-11.5 57 -11.5 89s4 65.667 12 101s20.333 70.166 37 104.499s37.834 66.833 63.501 97.5s55.667 57.667 90 81s73.333 41.833 117 55.5s92.167 20.5 145.5 20.5
c36.667 0 67.167 -4 91.5 -12s46.833 -18.333 67.5 -31l72 29h70l-76 -373c-5.33301 -28 -10.5 -53.167 -15.5 -75.5s-7.5 -42.166 -7.5 -59.499c0 -35.333 14.333 -53 43 -53c13.333 0 27.5 3.16699 42.5 9.5s30.167 14.166 45.5 23.499l27 -49
c-8.66699 -9.33301 -20.167 -19.666 -34.5 -30.999s-30.5 -21.833 -48.5 -31.5s-37.833 -17.834 -59.5 -24.501s-43.834 -10 -66.501 -10zM395.001 1022c0 -22.667 1.66504 -41.499 4.99805 -56.499s8 -27.167 14 -36.5s12.833 -16 20.5 -20s15.834 -6 24.501 -6
c18 0 36.667 8.16699 56 24.5s37.333 37 54 62s31.667 51.833 45 80.5s23 55.667 29 81l49 195c-8 12 -20.5 21.333 -37.5 28s-33.833 10 -50.5 10c-22.667 0 -43.667 -5.83301 -63 -17.5s-36.666 -27.334 -51.999 -47.001s-28.833 -42.167 -40.5 -67.5
s-21.5 -51.333 -29.5 -78s-14 -53.167 -18 -79.5s-6 -50.5 -6 -72.5z" />
    <glyph glyph-name="guillemotleft" unicode="&#xab;" horiz-adv-x="1135" 
d="M143 621l389 342h144l-293 -410l119 -410h-144l-237 371zM555 621l389 342h143l-292 -410l118 -410h-143l-238 371z" />
    <glyph glyph-name="logicalnot" unicode="&#xac;" 
d="M1044 805v-512h-147v366h-731v146h878z" />
    <glyph glyph-name="uni00AD" unicode="&#xad;" horiz-adv-x="635" 
d="M20 451l48 215h532l-47 -215h-533z" />
    <glyph glyph-name="registered" unicode="&#xae;" horiz-adv-x="1731" 
d="M494 358h25.998c13.333 0 26 0.833008 38 2.5s22.667 5 32 10s16.833 12.167 22.5 21.5s8.5 22 8.5 38v600c0 16 -2.83301 28.667 -8.5 38s-13.167 16.5 -22.5 21.5s-20 8.33301 -32 10s-24.667 2.5 -38 2.5h-26v72h368c234.667 0 352 -81.333 352 -244
c0 -32.667 -5.33301 -61.334 -16 -86.001s-24.667 -46 -42 -64s-37.166 -33.167 -59.499 -45.5s-45.166 -22.166 -68.499 -29.499l182 -293c6.66699 -11.333 13.167 -20.5 19.5 -27.5s13.833 -12.5 22.5 -16.5s18.667 -6.66699 30 -8s25.666 -2 42.999 -2v-69h-217l-225 381
h-109v-240c0.666992 -16 3.83398 -28.667 9.50098 -38s13 -16.5 22 -21.5s19.333 -8.33301 31 -10s24.167 -2.5 37.5 -2.5h29v-69h-409v69zM773.998 748l86 -0.00195312c36.667 0 67.5 3.66699 92.5 11s44.833 18.333 59.5 33s25.167 33.334 31.5 56.001
s9.5 49.334 9.5 80.001c0 30 -3.66699 55.667 -11 77s-19 38.5 -35 51.5s-36.5 22.5 -61.5 28.5s-55.5 9 -91.5 9h-80v-346zM128.998 730.998c0 69.333 9 136.166 27 200.499s43.167 124.333 75.5 180s71.5 106.5 117.5 152.5s96.833 85.333 152.5 118s115.5 58 179.5 76
s130.667 27 200 27s136 -9 200 -27s123.833 -43.333 179.5 -76s106.5 -72 152.5 -118s85.333 -96.833 118 -152.5s58 -115.667 76 -180s27 -131.166 27 -200.499s-9 -136 -27 -200s-43.333 -123.833 -76 -179.5s-72 -106.334 -118 -152.001s-96.833 -84.834 -152.5 -117.501
s-115.5 -57.834 -179.5 -75.501s-130.667 -26.5 -200 -26.5s-136 8.83301 -200 26.5s-123.833 42.834 -179.5 75.501s-106.5 71.834 -152.5 117.501s-85.167 96.334 -117.5 152.001s-57.5 115.5 -75.5 179.5s-27 130.667 -27 200zM241.998 730.998
c0 -58.667 7.66895 -115.166 23.002 -169.499s36.833 -105.166 64.5 -152.499s60.834 -90.5 99.501 -129.5s81.667 -72.333 129 -100s98.333 -49.167 153 -64.5s111.334 -23 170.001 -23c59.333 0 116.166 7.66699 170.499 23s105.333 36.833 153 64.5s91 61 130 100
s72.333 82.167 100 129.5s49.167 98.166 64.5 152.499s23 110.833 23 169.5c0 88.667 -16.833 171.834 -50.5 249.501s-79.5 145.5 -137.5 203.5s-125.833 103.833 -203.5 137.5s-160.834 50.5 -249.501 50.5c-58.667 0 -115.334 -7.66699 -170.001 -23
s-105.667 -36.833 -153 -64.5s-90.333 -61 -129 -100s-71.834 -82.333 -99.501 -130s-49.167 -98.834 -64.5 -153.501s-23 -111.334 -23 -170.001z" />
    <glyph glyph-name="overscore" unicode="&#xaf;" horiz-adv-x="940" 
d="M950 1556h-960v121h960v-121z" />
    <glyph glyph-name="degree" unicode="&#xb0;" horiz-adv-x="819" 
d="M225 1151c0 42.667 8 83 24 121s38 71 66 99s60.833 50.167 98.5 66.5s78.167 24.5 121.5 24.5c42.667 0 83 -8.16699 121 -24.5s71 -38.5 99 -66.5s50.167 -61 66.5 -99s24.5 -78.333 24.5 -121c0 -43.333 -8.16699 -83.666 -24.5 -120.999s-38.5 -70 -66.5 -98
s-61 -50 -99 -66s-78.333 -24 -121 -24c-43.333 0 -83.833 8 -121.5 24s-70.5 38 -98.5 66s-50 60.667 -66 98s-24 77.666 -24 120.999zM367 1151c0 -23.333 4.33301 -45.166 13 -65.499s20.667 -38.333 36 -54s33.166 -28 53.499 -37s42.166 -13.5 65.499 -13.5
c24 0 46.333 4.5 67 13.5s38.667 21.333 54 37s27.333 33.667 36 54s13 42.166 13 65.499c0 24 -4.33301 46.5 -13 67.5s-20.667 39.167 -36 54.5s-33.333 27.5 -54 36.5s-43 13.5 -67 13.5c-23.333 0 -45.166 -4.5 -65.499 -13.5s-38.166 -21.167 -53.499 -36.5
s-27.333 -33.5 -36 -54.5s-13 -43.5 -13 -67.5z" />
    <glyph glyph-name="plusminus" unicode="&#xb1;" 
d="M1044 0h-878v145h878v-145zM678 659v-366h-148v366h-364v146h364v366h148v-366h366v-146h-366z" />
    <glyph glyph-name="twosuperior" unicode="&#xb2;" horiz-adv-x="819" 
d="M59 586l29.002 146.996l303 221c41.333 30 76 58.833 104 86.5s50.333 54.834 67 81.501s28.5 53.5 35.5 80.5s10.5 54.833 10.5 83.5c0 13.333 -1.5 26.333 -4.5 39s-7.83301 23.834 -14.5 33.501s-15.5 17.5 -26.5 23.5s-24.5 9 -40.5 9
c-19.333 0 -36.666 -5.66699 -51.999 -17s-28.833 -26.333 -40.5 -45s-21.334 -40.167 -29.001 -64.5s-12.834 -49.833 -15.501 -76.5c-48 0 -86 9.66699 -114 29s-42 44.333 -42 75c0 28 7.33301 53.667 22 77s35.834 43.5 63.501 60.5s61.167 30.167 100.5 39.5
s84 14 134 14c42.667 0 81.167 -4.5 115.5 -13.5s63.5 -21.5 87.5 -37.5s42.5 -35.333 55.5 -58s19.5 -48 19.5 -76c0 -28.667 -4.83301 -56.167 -14.5 -82.5s-26.334 -53.666 -50.001 -81.999s-54.834 -59 -93.501 -92s-87 -70.167 -145 -111.5l-256 -185h301
c32 0 56.167 8.33301 72.5 25s28.5 36.334 36.5 59.001l16 43h80l-57 -286h-658z" />
    <glyph glyph-name="threesuperior" unicode="&#xb3;" horiz-adv-x="819" 
d="M360 573c-99.333 0 -174.34 14.835 -225.007 44.502s-76 70.167 -76 121.5c0 18.667 3.83301 35.167 11.5 49.5s18.334 26.5 32.001 36.5s29.834 17.667 48.501 23s38.667 8 60 8c0 -19.333 3 -39.5 9 -60.5s15.667 -40 29 -57s30.666 -31 51.999 -42
s47.333 -16.5 78 -16.5c24.667 0 47.834 3 69.501 9s40.5 15.833 56.5 29.5s28.667 31.167 38 52.5s14 47 14 77c0 18.667 -3.66699 36.667 -11 54s-18.5 32.333 -33.5 45s-34.333 22.834 -58 30.501s-51.5 11.5 -83.5 11.5h-68l16 96h70c28.667 0 56 4.83301 82 14.5
s48.833 23.5 68.5 41.5s35.334 40.167 47.001 66.5s17.5 56.5 17.5 90.5c0 27.333 -6.16699 49.666 -18.5 66.999s-32.166 26 -59.499 26c-22 0 -41.167 -4.83301 -57.5 -14.5s-30.333 -22.834 -42 -39.501s-21 -35.667 -28 -57s-12.167 -44 -15.5 -68
c-50 0 -90.167 7.5 -120.5 22.5s-45.5 39.167 -45.5 72.5c0 24 7.33301 46.667 22 68s35.834 40 63.501 56s61.5 28.667 101.5 38s85 14 135 14c48.667 0 90.834 -4.83301 126.501 -14.5s65.167 -23 88.5 -40s40.666 -36.833 51.999 -59.5s17 -47 17 -73
c0 -36 -6.33301 -67.333 -19 -94s-30.5 -49.667 -53.5 -69s-50.333 -35.333 -82 -48s-66.167 -22.667 -103.5 -30l-2 -11c62.667 -7.33301 112.834 -26.333 150.501 -57s56.5 -74.334 56.5 -131.001c0 -46 -10.333 -86.667 -31 -122s-49.167 -64.833 -85.5 -88.5
s-79.666 -41.667 -129.999 -54s-104.833 -18.5 -163.5 -18.5z" />
    <glyph glyph-name="acute" unicode="&#xb4;" horiz-adv-x="1182" 
d="M504 1268c18.667 19.333 39.002 41.667 61.002 67l65.5 78.5l63 80.5c20.333 26.667 38.5 51.667 54.5 75h321l-6 -21c-10.667 -12 -25.334 -26.167 -44.001 -42.5s-39.834 -33.833 -63.501 -52.5l-76 -57.5l-82.5 -57.5l-83 -53.5c-27.333 -17 -53 -31.5 -77 -43.5h-139
z" />
    <glyph glyph-name="mu" unicode="&#xb5;" horiz-adv-x="1386" 
d="M803 188c-23.333 -31.333 -46.1621 -59.835 -68.4951 -85.502s-45.833 -47.5 -70.5 -65.5s-51 -32 -79 -42s-59 -15 -93 -15c-60.667 0 -112 13.5 -154 40.5s-75.333 62.5 -100 106.5c-4.66699 -24 -8.83398 -48.667 -12.501 -74s-6.66699 -50 -9 -74
s-4.16602 -46.833 -5.49902 -68.5s-2 -40.834 -2 -57.501c0 -23.333 2.16699 -44.5 6.5 -63.5s12.666 -35.5 24.999 -49.5s29.333 -25.5 51 -34.5s49.5 -15.167 83.5 -18.5c-5.33301 -30 -15.833 -56.333 -31.5 -79s-34.667 -41.334 -57 -56.001
s-47.166 -25.667 -74.499 -33s-55 -11 -83 -11c-19.333 0 -37.166 2.5 -53.499 7.5s-30.333 13.333 -42 25s-20.834 26.834 -27.501 45.501s-10 42 -10 70c0 40.667 5.66699 86.334 17 137.001s26 108.334 44 173.001l60 219c22 81.333 43.667 173.333 65 276l135 637h312
l-137 -643l-7 -35c-2.66699 -13.333 -5.16699 -27.5 -7.5 -42.5s-4.33301 -30 -6 -45s-2.5 -28.833 -2.5 -41.5c0 -18.667 2.16699 -36.334 6.5 -53.001s11.333 -31.167 21 -43.5s21.667 -22.166 36 -29.499s31.5 -11 51.5 -11c63.333 0 116.666 30.5 159.999 91.5
s78.666 156.5 105.999 286.5l121 566h311l-141 -666c-8.66699 -37.333 -15.667 -72.166 -21 -104.499s-8 -62.833 -8 -91.5c0 -30 6.33301 -53 19 -69s30.334 -24 53.001 -24c21.333 0 40.833 4 58.5 12s38.5 19.667 62.5 35l49 -69
c-16.667 -17.333 -35.334 -34.5 -56.001 -51.5s-44.334 -32.167 -71.001 -45.5s-56.334 -24 -89.001 -32s-69.334 -12 -110.001 -12c-42 0 -76.833 5.83301 -104.5 17.5s-49.667 27 -66 46s-27.833 41 -34.5 66s-10 51.167 -10 78.5h-10z" />
    <glyph glyph-name="paragraph" unicode="&#xb6;" horiz-adv-x="1284" 
d="M909 1430l-171.999 -0.00195312v-1657h-342v108h27c22.667 0 44.334 1.5 65.001 4.5s38.5 9.66699 53.5 20s27 25.166 36 44.499s13.5 45 13.5 77v764h-146c-60 0 -110 10.833 -150 32.5s-72 51 -96 88s-41.167 79.667 -51.5 128s-15.5 99.166 -15.5 152.499
c0 54.667 5.66699 104.334 17 149.001s29.666 83 54.999 115s58.166 56.667 98.499 74s89.5 26 147.5 26h802v-108h-26c-23.333 0 -45.166 -1.66699 -65.499 -5s-38 -10.166 -53 -20.499s-27 -25.166 -36 -44.499s-13.5 -45.333 -13.5 -78v-1273c0 -32 4.5 -57.667 13.5 -77
s21 -34.166 36 -44.499s32.667 -17 53 -20s42.166 -4.5 65.499 -4.5h26v-108h-342v1657z" />
    <glyph glyph-name="periodcentered" unicode="&#xb7;" horiz-adv-x="623" 
d="M518 746c0 -34 -5.16797 -62.833 -15.501 -86.5s-24 -42.667 -41 -57s-36.167 -24.666 -57.5 -30.999s-42.666 -9.5 -63.999 -9.5c-49.333 0 -89.333 12 -120 36s-46 61 -46 111c0 28 4.16699 53.333 12.5 76s20.333 42 36 58s34.334 28.333 56.001 37s46.167 13 73.5 13
c23.333 0 45.166 -3 65.499 -9s38 -15 53 -27s26.667 -27.333 35 -46s12.5 -40.334 12.5 -65.001z" />
    <glyph glyph-name="cedilla" unicode="&#xb8;" horiz-adv-x="682" 
d="M387 -70c27.333 -3.33301 52.1689 -9.99805 74.502 -19.998s41.5 -22.5 57.5 -37.5s28.333 -32 37 -51s13 -39.5 13 -61.5c0 -44 -10.167 -81.833 -30.5 -113.5s-47.5 -57.834 -81.5 -78.501s-72.833 -35.834 -116.5 -45.501s-88.834 -14.5 -135.501 -14.5
c-21.333 0 -46.5 2.5 -75.5 7.5s-55.167 11.5 -78.5 19.5l27 121c23.333 -5.33301 46.666 -9.33301 69.999 -12s44.333 -4 63 -4c20.667 0 40.334 2 59.001 6s34.667 10.167 48 18.5s24 19 32 32s12 28.833 12 47.5c0 13.333 -3.5 25.5 -10.5 36.5s-16.5 20.667 -28.5 29
s-26.333 14.833 -43 19.5s-34.334 7.66699 -53.001 9l82 180h117z" />
    <glyph glyph-name="onesuperior" unicode="&#xb9;" horiz-adv-x="819" 
d="M717 1473l-146.001 -689c-3.33301 -12 -5.5 -23 -6.5 -33s-1.5 -16.667 -1.5 -20c0 -12 2.16699 -21.5 6.5 -28.5s10.166 -12.333 17.499 -16s15.833 -6 25.5 -7s19.834 -1.5 30.501 -1.5h84l-18 -90h-578l19 90h104c12.667 0 24.834 0.833008 36.501 2.5
s22.167 5.16699 31.5 10.5s17.5 13.166 24.5 23.499s12.167 24.166 15.5 41.499l123 581c-38.667 -38 -73.167 -68.667 -103.5 -92s-57.833 -35 -82.5 -35c-19.333 0 -34 9.83301 -44 29.5s-15 43.5 -15 71.5c16 2.66699 32 6.33398 48 11.001s32.667 10.667 50 18
s36 16.333 56 27s41.667 23.334 65 38.001l106 68h152z" />
    <glyph glyph-name="ordmasculine" unicode="&#xba;" horiz-adv-x="834" 
d="M922 1219c0 -28.667 -4.00391 -59.333 -12.0039 -92s-20.333 -65.334 -37 -98.001s-37.5 -64 -62.5 -94s-54.667 -56.5 -89 -79.5s-73.166 -41.333 -116.499 -55s-91.333 -20.5 -144 -20.5c-47.333 0 -90.333 5.5 -129 16.5s-71.667 27.5 -99 49.5s-48.5 49 -63.5 81
s-22.5 69 -22.5 111c0 30.667 4.5 62.834 13.5 96.501s22.167 66.5 39.5 98.5s39 62.5 65 91.5s56.333 54.5 91 76.5s73.334 39.5 116.001 52.5s89.334 19.5 140.001 19.5c42.667 0 82.834 -5 120.501 -15s70.5 -25.333 98.5 -46s50.167 -47 66.5 -79s24.5 -70 24.5 -114z
M691.996 1225c0 45.333 -6.99902 79.832 -20.999 103.499s-37 35.5 -69 35.5c-34.667 0 -65.834 -11 -93.501 -33s-51 -49.833 -70 -83.5s-33.667 -70.167 -44 -109.5s-15.5 -76 -15.5 -110c0 -46 7.66699 -81.667 23 -107s38.333 -38 69 -38
c36.667 0 68.834 11.5 96.501 34.5s50.667 51.833 69 86.5s32.166 71.834 41.499 111.501s14 76.167 14 109.5z" />
    <glyph glyph-name="guillemotright" unicode="&#xbb;" horiz-adv-x="1135" 
d="M987 487l-387 -344h-143l295 410l-121 410h143l236 -369zM575 487l-387 -344h-143l295 410l-121 410h143l236 -369z" />
    <glyph glyph-name="onequarter" unicode="&#xbc;" horiz-adv-x="1720" 
d="M640 1473l-146.001 -689c-3.33301 -12 -5.5 -23 -6.5 -33s-1.5 -16.667 -1.5 -20c0 -12 2.16699 -21.5 6.5 -28.5s10.166 -12.333 17.499 -16s15.833 -6 25.5 -7s19.834 -1.5 30.501 -1.5h84l-18 -90h-578l19 90h104c12.667 0 24.834 0.833008 36.501 2.5
s22.167 5.16699 31.5 10.5s17.5 13.166 24.5 23.499s12.167 24.166 15.5 41.499l123 581c-38.667 -38 -73.167 -68.667 -103.5 -92s-57.833 -35 -82.5 -35c-19.333 0 -34 9.83301 -44 29.5s-15 43.5 -15 71.5c16 2.66699 32 6.33398 48 11.001s32.667 10.667 50 18
s36 16.333 56 27s41.667 23.334 65 38.001l106 68h152zM459.999 0h-174l1039 1462h172zM1466 240l-8.00098 -35.9971c-3.33301 -14.667 -5.5 -27.667 -6.5 -39s-1.5 -19 -1.5 -23c0 -11.333 1.83301 -20.333 5.5 -27s8.83398 -11.834 15.501 -15.501s14.334 -6 23.001 -7
s17.667 -1.5 27 -1.5h41l-18 -90h-471l18 90h58c11.333 0 22.166 0.833008 32.499 2.5s20 5.16699 29 10.5s16.833 13.166 23.5 23.499s11.667 24.166 15 41.499l14 71h-387l17 82l528 564h182l-112 -537h159l-24 -109h-160zM1335 578.003
c4 21.333 9.66797 42.5 17.001 63.5s14.666 44.167 21.999 69.5c-7.33301 -11.333 -15.333 -22.333 -24 -33s-15 -18.667 -19 -24l-287 -305h244z" />
    <glyph glyph-name="onehalf" unicode="&#xbd;" horiz-adv-x="1720" 
d="M640 1473l-146.001 -689c-3.33301 -12 -5.5 -23 -6.5 -33s-1.5 -16.667 -1.5 -20c0 -12 2.16699 -21.5 6.5 -28.5s10.166 -12.333 17.499 -16s15.833 -6 25.5 -7s19.834 -1.5 30.501 -1.5h84l-18 -90h-578l19 90h104c12.667 0 24.834 0.833008 36.501 2.5
s22.167 5.16699 31.5 10.5s17.5 13.166 24.5 23.499s12.167 24.166 15.5 41.499l123 581c-38.667 -38 -73.167 -68.667 -103.5 -92s-57.833 -35 -82.5 -35c-19.333 0 -34 9.83301 -44 29.5s-15 43.5 -15 71.5c16 2.66699 32 6.33398 48 11.001s32.667 10.667 50 18
s36 16.333 56 27s41.667 23.334 65 38.001l106 68h152zM449.999 0h-174l1039 1462h172zM898.999 1l29.002 146.996l303 221c41.333 30 76 58.833 104 86.5s50.333 54.834 67 81.501s28.5 53.5 35.5 80.5s10.5 54.833 10.5 83.5c0 13.333 -1.5 26.333 -4.5 39
s-7.83301 23.834 -14.5 33.501s-15.5 17.5 -26.5 23.5s-24.5 9 -40.5 9c-19.333 0 -36.666 -5.66699 -51.999 -17s-28.833 -26.333 -40.5 -45s-21.334 -40.167 -29.001 -64.5s-12.834 -49.833 -15.501 -76.5c-48 0 -86 9.66699 -114 29s-42 44.333 -42 75
c0 28 7.33301 53.667 22 77s35.834 43.5 63.501 60.5s61.167 30.167 100.5 39.5s84 14 134 14c42.667 0 81.167 -4.5 115.5 -13.5s63.5 -21.5 87.5 -37.5s42.5 -35.333 55.5 -58s19.5 -48 19.5 -76c0 -28.667 -4.83301 -56.167 -14.5 -82.5s-26.334 -53.666 -50.001 -81.999
s-54.834 -59 -93.501 -92s-87 -70.167 -145 -111.5l-256 -185h301c32 0 56.167 8.33301 72.5 25s28.5 36.334 36.5 59.001l16 43h80l-57 -286h-658z" />
    <glyph glyph-name="threequarters" unicode="&#xbe;" horiz-adv-x="1720" 
d="M514 0h-174l1039 1462h172zM1474 240l-8.00098 -35.9971c-3.33301 -14.667 -5.5 -27.667 -6.5 -39s-1.5 -19 -1.5 -23c0 -11.333 1.83301 -20.333 5.5 -27s8.83398 -11.834 15.501 -15.501s14.334 -6 23.001 -7s17.667 -1.5 27 -1.5h41l-18 -90h-471l18 90h58
c11.333 0 22.166 0.833008 32.499 2.5s20 5.16699 29 10.5s16.833 13.166 23.5 23.499s11.667 24.166 15 41.499l14 71h-387l17 82l528 564h182l-112 -537h159l-24 -109h-160zM1343 578.003c4 21.333 9.66797 42.5 17.001 63.5s14.666 44.167 21.999 69.5
c-7.33301 -11.333 -15.333 -22.333 -24 -33s-15 -18.667 -19 -24l-287 -305h244zM357 573.003c-99.333 0 -174.34 14.835 -225.007 44.502s-76 70.167 -76 121.5c0 18.667 3.83301 35.167 11.5 49.5s18.334 26.5 32.001 36.5s29.834 17.667 48.501 23s38.667 8 60 8
c0 -19.333 3 -39.5 9 -60.5s15.667 -40 29 -57s30.666 -31 51.999 -42s47.333 -16.5 78 -16.5c24.667 0 47.834 3 69.501 9s40.5 15.833 56.5 29.5s28.667 31.167 38 52.5s14 47 14 77c0 18.667 -3.66699 36.667 -11 54s-18.5 32.333 -33.5 45s-34.333 22.834 -58 30.501
s-51.5 11.5 -83.5 11.5h-68l16 96h70c28.667 0 56 4.83301 82 14.5s48.833 23.5 68.5 41.5s35.334 40.167 47.001 66.5s17.5 56.5 17.5 90.5c0 27.333 -6.16699 49.666 -18.5 66.999s-32.166 26 -59.499 26c-22 0 -41.167 -4.83301 -57.5 -14.5s-30.333 -22.834 -42 -39.501
s-21 -35.667 -28 -57s-12.167 -44 -15.5 -68c-50 0 -90.167 7.5 -120.5 22.5s-45.5 39.167 -45.5 72.5c0 24 7.33301 46.667 22 68s35.834 40 63.501 56s61.5 28.667 101.5 38s85 14 135 14c48.667 0 90.834 -4.83301 126.501 -14.5s65.167 -23 88.5 -40
s40.666 -36.833 51.999 -59.5s17 -47 17 -73c0 -36 -6.33301 -67.333 -19 -94s-30.5 -49.667 -53.5 -69s-50.333 -35.333 -82 -48s-66.167 -22.667 -103.5 -30l-2 -11c62.667 -7.33301 112.834 -26.333 150.501 -57s56.5 -74.334 56.5 -131.001
c0 -46 -10.333 -86.667 -31 -122s-49.167 -64.833 -85.5 -88.5s-79.666 -41.667 -129.999 -54s-104.833 -18.5 -163.5 -18.5z" />
    <glyph glyph-name="questiondown" unicode="&#xbf;" horiz-adv-x="1096" 
d="M4 -49c0 59.333 13.0029 113.5 39.0029 162.5s61.667 93.667 107 134s99.166 76.666 161.499 108.999s129.833 61.5 202.5 87.5l74 183h131l4 -254c-60.667 -22 -115.5 -46.167 -164.5 -72.5s-90.833 -56.333 -125.5 -90s-61.5 -72 -80.5 -115s-28.5 -92.5 -28.5 -148.5
c0 -34 3.66699 -64 11 -90s17.666 -48 30.999 -66s28.833 -31.667 46.5 -41s37.167 -14 58.5 -14c32 0 59.5 8.33301 82.5 25s42.167 38.667 57.5 66s27.5 59 36.5 95s15.833 73.667 20.5 113c168 0 252 -52.667 252 -158c0 -36.667 -11 -71.167 -33 -103.5
s-53.5 -60.5 -94.5 -84.5s-90.833 -43 -149.5 -57s-124.334 -21 -197.001 -21c-68 0 -129.333 6.66699 -184 20s-101 33.833 -139 61.5s-67.333 62.834 -88 105.501s-31 93.667 -31 153zM524.003 926c0 34 5.16602 62.834 15.499 86.501s24 42.667 41 57
s36.167 24.666 57.5 30.999s42.666 9.5 63.999 9.5c50 0 90.167 -12 120.5 -36s45.5 -61 45.5 -111c0 -28 -4.16699 -53.333 -12.5 -76s-20.166 -42 -35.499 -58s-34 -28.5 -56 -37.5s-46.667 -13.5 -74 -13.5c-23.333 0 -45.166 3 -65.499 9s-38 15 -53 27
s-26.667 27.333 -35 46s-12.5 40.667 -12.5 66z" />
    <glyph glyph-name="Agrave" unicode="&#xc0;" horiz-adv-x="1542" 
d="M438 481l-99.9971 -183.998c-13.333 -24.667 -23.166 -46.334 -29.499 -65.001s-9.5 -35.334 -9.5 -50.001c0 -25.333 9.33301 -43.833 28 -55.5s47.667 -17.5 87 -17.5h41l-23 -109h-532l22 109h43c18.667 0 35.167 2.16699 49.5 6.5s28.166 12.5 41.499 24.5
s27.166 28.333 41.499 49s30.833 47 49.5 79l695 1194h280l172 -1206c3.33301 -21.333 7.83301 -41 13.5 -59s13.167 -33.5 22.5 -46.5s21.166 -23.167 35.499 -30.5s32.166 -11 53.499 -11h37l-22 -109h-676l22 109h47c44 0 79 6.83301 105 20.5s39 35.5 39 65.5
c0 11.333 -0.333008 22.5 -1 33.5s-1.66699 21.5 -3 31.5l-31 221h-498zM885.003 950.002l-9.49902 84.5c-3 26.333 -5.66699 51.833 -8 76.5s-4.33301 48.667 -6 72s-2.83398 47.333 -3.50098 72c-10 -24.667 -20 -47.5 -30 -68.5l-32 -64l-37.5 -69l-47.5 -84.5l-203 -363
h414zM987.004 1579c-29.333 17.333 -60.498 39.334 -93.498 66.001s-64.833 54.5 -95.5 83.5s-58.834 57.5 -84.501 85.5s-45.5 52 -59.5 72l6 21h301c8 -24.667 18.5 -51.334 31.5 -80.001s26.5 -56.667 40.5 -84s28.167 -53 42.5 -77s27.166 -44 38.499 -60l-6 -27h-121z
" />
    <glyph glyph-name="Aacute" unicode="&#xc1;" horiz-adv-x="1542" 
d="M438 481l-99.9971 -183.998c-13.333 -24.667 -23.166 -46.334 -29.499 -65.001s-9.5 -35.334 -9.5 -50.001c0 -25.333 9.33301 -43.833 28 -55.5s47.667 -17.5 87 -17.5h41l-23 -109h-532l22 109h43c18.667 0 35.167 2.16699 49.5 6.5s28.166 12.5 41.499 24.5
s27.166 28.333 41.499 49s30.833 47 49.5 79l695 1194h280l172 -1206c3.33301 -21.333 7.83301 -41 13.5 -59s13.167 -33.5 22.5 -46.5s21.166 -23.167 35.499 -30.5s32.166 -11 53.499 -11h37l-22 -109h-676l22 109h47c44 0 79 6.83301 105 20.5s39 35.5 39 65.5
c0 11.333 -0.333008 22.5 -1 33.5s-1.66699 21.5 -3 31.5l-31 221h-498zM885.003 950.002l-9.49902 84.5c-3 26.333 -5.66699 51.833 -8 76.5s-4.33301 48.667 -6 72s-2.83398 47.333 -3.50098 72c-10 -24.667 -20 -47.5 -30 -68.5l-32 -64l-37.5 -69l-47.5 -84.5l-203 -363
h414zM864.004 1606c18.667 19.333 39.002 41.667 61.002 67l65.5 78.5l63 80.5c20.333 26.667 38.5 51.667 54.5 75h321l-6 -21c-10.667 -12 -25.334 -26.167 -44.001 -42.5s-39.834 -33.833 -63.501 -52.5l-76 -57.5l-82.5 -57.5l-83 -53.5
c-27.333 -17 -53 -31.5 -77 -43.5h-139z" />
    <glyph glyph-name="Acircumflex" unicode="&#xc2;" horiz-adv-x="1542" 
d="M438 481l-99.9971 -183.998c-13.333 -24.667 -23.166 -46.334 -29.499 -65.001s-9.5 -35.334 -9.5 -50.001c0 -25.333 9.33301 -43.833 28 -55.5s47.667 -17.5 87 -17.5h41l-23 -109h-532l22 109h43c18.667 0 35.167 2.16699 49.5 6.5s28.166 12.5 41.499 24.5
s27.166 28.333 41.499 49s30.833 47 49.5 79l695 1194h280l172 -1206c3.33301 -21.333 7.83301 -41 13.5 -59s13.167 -33.5 22.5 -46.5s21.166 -23.167 35.499 -30.5s32.166 -11 53.499 -11h37l-22 -109h-676l22 109h47c44 0 79 6.83301 105 20.5s39 35.5 39 65.5
c0 11.333 -0.333008 22.5 -1 33.5s-1.66699 21.5 -3 31.5l-31 221h-498zM885.003 950.002l-9.49902 84.5c-3 26.333 -5.66699 51.833 -8 76.5s-4.33301 48.667 -6 72s-2.83398 47.333 -3.50098 72c-10 -24.667 -20 -47.5 -30 -68.5l-32 -64l-37.5 -69l-47.5 -84.5l-203 -363
h414zM619.004 1606l68.001 66.5l78 77.5l78 80.5c25.333 27 47.666 52.5 66.999 76.5h276c8.66699 -21.333 19.667 -45.333 33 -72l42.5 -81l44.5 -80c14.667 -26 28 -48.667 40 -68l-6 -27h-129l-42 40l-49 48l-49.5 50c-16.333 16.667 -30.5 32 -42.5 46l-61 -46l-69 -50
l-68 -48l-58 -40h-159z" />
    <glyph glyph-name="Atilde" unicode="&#xc3;" horiz-adv-x="1542" 
d="M438 481l-99.9971 -183.998c-13.333 -24.667 -23.166 -46.334 -29.499 -65.001s-9.5 -35.334 -9.5 -50.001c0 -25.333 9.33301 -43.833 28 -55.5s47.667 -17.5 87 -17.5h41l-23 -109h-532l22 109h43c18.667 0 35.167 2.16699 49.5 6.5s28.166 12.5 41.499 24.5
s27.166 28.333 41.499 49s30.833 47 49.5 79l695 1194h280l172 -1206c3.33301 -21.333 7.83301 -41 13.5 -59s13.167 -33.5 22.5 -46.5s21.166 -23.167 35.499 -30.5s32.166 -11 53.499 -11h37l-22 -109h-676l22 109h47c44 0 79 6.83301 105 20.5s39 35.5 39 65.5
c0 11.333 -0.333008 22.5 -1 33.5s-1.66699 21.5 -3 31.5l-31 221h-498zM885.003 950.002l-9.49902 84.5c-3 26.333 -5.66699 51.833 -8 76.5s-4.33301 48.667 -6 72s-2.83398 47.333 -3.50098 72c-10 -24.667 -20 -47.5 -30 -68.5l-32 -64l-37.5 -69l-47.5 -84.5l-203 -363
h414zM1188 1774c17.333 0 32.335 3.00098 45.002 9.00098s23.5 14 32.5 24s16.333 21.5 22 34.5s10.167 26.5 13.5 40.5h123c-7.33301 -32.667 -18.5 -66.834 -33.5 -102.501s-33.667 -68.334 -56 -98.001s-48.333 -54.167 -78 -73.5s-62.834 -29 -99.501 -29
s-69.667 6.66699 -99 20s-56.333 28.166 -81 44.499l-69.5 44.5c-21.667 13.333 -43.5 20 -65.5 20c-14 0 -27.333 -3 -40 -9s-24 -14 -34 -24s-18.333 -21.5 -25 -34.5s-11.334 -26.5 -14.001 -40.5h-122c6 30.667 16.833 63.834 32.5 99.501s35.5 68.5 59.5 98.5
s51.5 55 82.5 75s64.833 30 101.5 30c36 0 68.167 -6.66699 96.5 -20s54.333 -28.166 78 -44.499l67 -44.5c21 -13.333 42.167 -20 63.5 -20z" />
    <glyph glyph-name="Adieresis" unicode="&#xc4;" horiz-adv-x="1542" 
d="M438 481l-99.9971 -183.998c-13.333 -24.667 -23.166 -46.334 -29.499 -65.001s-9.5 -35.334 -9.5 -50.001c0 -25.333 9.33301 -43.833 28 -55.5s47.667 -17.5 87 -17.5h41l-23 -109h-532l22 109h43c18.667 0 35.167 2.16699 49.5 6.5s28.166 12.5 41.499 24.5
s27.166 28.333 41.499 49s30.833 47 49.5 79l695 1194h280l172 -1206c3.33301 -21.333 7.83301 -41 13.5 -59s13.167 -33.5 22.5 -46.5s21.166 -23.167 35.499 -30.5s32.166 -11 53.499 -11h37l-22 -109h-676l22 109h47c44 0 79 6.83301 105 20.5s39 35.5 39 65.5
c0 11.333 -0.333008 22.5 -1 33.5s-1.66699 21.5 -3 31.5l-31 221h-498zM885.003 950.002l-9.49902 84.5c-3 26.333 -5.66699 51.833 -8 76.5s-4.33301 48.667 -6 72s-2.83398 47.333 -3.50098 72c-10 -24.667 -20 -47.5 -30 -68.5l-32 -64l-37.5 -69l-47.5 -84.5l-203 -363
h414zM913.004 1755c0 -26.667 -3.66699 -49 -11 -67s-16.666 -32.667 -27.999 -44s-24.333 -19.5 -39 -24.5s-29.334 -7.5 -44.001 -7.5c-34 0 -61.333 9.16699 -82 27.5s-31 46.5 -31 84.5c0 44 11 79 33 105s52 39 90 39c32.667 0 59.5 -9.33301 80.5 -28
s31.5 -47 31.5 -85zM1341 1755c0 -26.667 -3.66699 -49 -11 -67s-16.666 -32.667 -27.999 -44s-24.333 -19.5 -39 -24.5s-29.334 -7.5 -44.001 -7.5c-34 0 -61.333 9.16699 -82 27.5s-31 46.5 -31 84.5c0 44 11 79 33 105s52 39 90 39c32.667 0 59.5 -9.33301 80.5 -28
s31.5 -47 31.5 -85z" />
    <glyph glyph-name="Aring" unicode="&#xc5;" horiz-adv-x="1542" 
d="M438 481l-99.9971 -183.998c-13.333 -24.667 -23.166 -46.334 -29.499 -65.001s-9.5 -35.334 -9.5 -50.001c0 -25.333 9.33301 -43.833 28 -55.5s47.667 -17.5 87 -17.5h41l-23 -109h-532l22 109h43c18.667 0 35.167 2.16699 49.5 6.5s28.166 12.5 41.499 24.5
s27.166 28.333 41.499 49s30.833 47 49.5 79l695 1194h280l172 -1206c3.33301 -21.333 7.83301 -41 13.5 -59s13.167 -33.5 22.5 -46.5s21.166 -23.167 35.499 -30.5s32.166 -11 53.499 -11h37l-22 -109h-676l22 109h47c44 0 79 6.83301 105 20.5s39 35.5 39 65.5
c0 11.333 -0.333008 22.5 -1 33.5s-1.66699 21.5 -3 31.5l-31 221h-498zM885.003 950.002l-9.49902 84.5c-3 26.333 -5.66699 51.833 -8 76.5s-4.33301 48.667 -6 72s-2.83398 47.333 -3.50098 72c-10 -24.667 -20 -47.5 -30 -68.5l-32 -64l-37.5 -69l-47.5 -84.5l-203 -363
h414zM1217 1573c0 -36.667 -6.33301 -68.834 -19 -96.501s-30.167 -51 -52.5 -70s-48.5 -33.333 -78.5 -43s-62 -14.5 -96 -14.5s-66 4.83301 -96 14.5s-56.167 24 -78.5 43s-39.833 42.333 -52.5 70s-19 59.834 -19 96.501c0 36 6.33301 68 19 96s30.167 51.333 52.5 70
s48.5 32.834 78.5 42.501s62 14.5 96 14.5s66 -4.83301 96 -14.5s56.167 -23.834 78.5 -42.501s39.833 -42 52.5 -70s19 -60 19 -96zM1092 1573c0 20 -3.33301 36.833 -10 50.5s-15.5 25 -26.5 34s-23.833 15.5 -38.5 19.5s-30 6 -46 6c-16.667 0 -32.334 -2 -47.001 -6
s-27.5 -10.5 -38.5 -19.5s-19.667 -20.333 -26 -34s-9.5 -30.5 -9.5 -50.5s3.16699 -37 9.5 -51s15 -25.5 26 -34.5s23.833 -15.5 38.5 -19.5s30.334 -6 47.001 -6c16 0 31.333 2 46 6s27.5 10.5 38.5 19.5s19.833 20.5 26.5 34.5s10 31 10 51z" />
    <glyph glyph-name="AE" unicode="&#xc6;" horiz-adv-x="2034" 
d="M2083 1462l-72 -381.003h-145c0.666992 4.66699 1.5 13 2.5 25l3 37.5c1 13 2 25 3 36s1.5 17.833 1.5 20.5c0 18.667 -2.66699 36.334 -8 53.001s-13.666 31.334 -24.999 44.001s-26.166 22.5 -44.499 29.5s-40.833 10.5 -67.5 10.5h-273l-108 -512h465l-27 -123h-465
l-123 -577h324c32 0 60.5 4.5 85.5 13.5s47 21.167 66 36.5s35 33.166 48 53.499s23.5 41.833 31.5 64.5l33 88h145l-94 -381h-1175l22 109h27c21.333 0 42.166 1.33301 62.499 4s38.833 8.33398 55.5 17.001s31.167 21 43.5 37s21.166 37.333 26.499 64l49 238h-467
l-121 -172c-20 -28.667 -34.5 -54.167 -43.5 -76.5s-13.5 -39.166 -13.5 -50.499c0 -21.333 9.33301 -36.833 28 -46.5s45.667 -14.5 81 -14.5h35l-23 -109h-516l22 109h25c18 0 35.333 3.16699 52 9.5s33.5 16 50.5 29s34.5 29.5 52.5 49.5s37.333 43.667 58 71l805 1075
l-133 11l22 108h1219zM1114 1337l-539 -745h402l158 745h-21z" />
    <glyph glyph-name="Ccedilla" unicode="&#xc7;" horiz-adv-x="1368" 
d="M823 152c47.333 0 89.999 5.33496 127.999 16.002s72 24.834 102 42.501s56.333 37.5 79 59.5s42.667 44.667 60 68c8 -6 15.833 -15.333 23.5 -28s11.5 -26.667 11.5 -42c0 -34 -10.333 -68.167 -31 -102.5s-51.167 -65.333 -91.5 -93s-90.166 -50 -149.499 -67
s-127.666 -25.5 -204.999 -25.5c-98 0 -185.5 12.167 -262.5 36.5s-142 60 -195 107s-93.5 104.667 -121.5 173s-42 146.166 -42 233.499c0 82 9.66699 162.667 29 242s47.333 154.666 84 225.999s81.5 137 134.5 197s113 112 180 156s140.5 78.333 220.5 103
s165.667 37 257 37c68 0 127.5 -5.83301 178.5 -17.5s93.333 -28 127 -49s58.834 -46.667 75.501 -77s25 -63.833 25 -100.5c0 -30 -7.33301 -56.333 -22 -79s-34.834 -41.834 -60.501 -57.501s-56.167 -27.5 -91.5 -35.5s-73.666 -12 -114.999 -12
c0 28.667 -2 60.334 -6 95.001s-12.167 67 -24.5 97s-29.833 55 -52.5 75s-53 30 -91 30c-54 0 -103.833 -12.333 -149.5 -37s-87.334 -58.167 -125.001 -100.5s-71 -91.5 -100 -147.5s-53.333 -115.167 -73 -177.5s-34.667 -126 -45 -191s-15.5 -127.833 -15.5 -188.5
c0 -116.667 29.667 -206.834 89 -270.501s147.666 -95.5 264.999 -95.5zM683.999 -69.998c27.333 -3.33301 52.1689 -9.99805 74.502 -19.998s41.5 -22.5 57.5 -37.5s28.333 -32 37 -51s13 -39.5 13 -61.5c0 -44 -10.167 -81.833 -30.5 -113.5s-47.5 -57.834 -81.5 -78.501
s-72.833 -35.834 -116.5 -45.501s-88.834 -14.5 -135.501 -14.5c-21.333 0 -46.5 2.5 -75.5 7.5s-55.167 11.5 -78.5 19.5l27 121c23.333 -5.33301 46.666 -9.33301 69.999 -12s44.333 -4 63 -4c20.667 0 40.334 2 59.001 6s34.667 10.167 48 18.5s24 19 32 32
s12 28.833 12 47.5c0 13.333 -3.5 25.5 -10.5 36.5s-16.5 20.667 -28.5 29s-26.333 14.833 -43 19.5s-34.334 7.66699 -53.001 9l82 180h117z" />
    <glyph glyph-name="Egrave" unicode="&#xc8;" horiz-adv-x="1296" 
d="M-25 109h26.998c21.333 0 42.166 1.33301 62.499 4s38.833 8.33398 55.5 17.001s31.167 21 43.5 37s21.166 37.333 26.499 64l213 1006c2.66699 7.33301 4.83398 15.666 6.50098 24.999s2.5 16.666 2.5 21.999c0 14.667 -3.66699 26.667 -11 36s-17.5 16.5 -30.5 21.5
s-28.667 8.33301 -47 10s-38.166 2.5 -59.499 2.5h-26l22 108h1112l-72 -381h-145c0.666992 4.66699 1.5 13 2.5 25l3 37.5c1 13 2 25 3 36s1.5 17.833 1.5 20.5c0 18.667 -2.66699 36.334 -8 53.001s-13.666 31.334 -24.999 44.001s-26.166 22.5 -44.499 29.5
s-40.833 10.5 -67.5 10.5h-272l-109 -512h465l-27 -123h-465l-123 -577h324c32 0 60.667 4.5 86 13.5s47.333 21.167 66 36.5s34.5 33.166 47.5 53.499s23.5 41.833 31.5 64.5l33 88h146l-95 -381h-1175zM869.998 1579c-29.333 17.333 -60.498 39.334 -93.498 66.001
s-64.833 54.5 -95.5 83.5s-58.834 57.5 -84.501 85.5s-45.5 52 -59.5 72l6 21h301c8 -24.667 18.5 -51.334 31.5 -80.001s26.5 -56.667 40.5 -84s28.167 -53 42.5 -77s27.166 -44 38.499 -60l-6 -27h-121z" />
    <glyph glyph-name="Eacute" unicode="&#xc9;" horiz-adv-x="1296" 
d="M-25 109h26.998c21.333 0 42.166 1.33301 62.499 4s38.833 8.33398 55.5 17.001s31.167 21 43.5 37s21.166 37.333 26.499 64l213 1006c2.66699 7.33301 4.83398 15.666 6.50098 24.999s2.5 16.666 2.5 21.999c0 14.667 -3.66699 26.667 -11 36s-17.5 16.5 -30.5 21.5
s-28.667 8.33301 -47 10s-38.166 2.5 -59.499 2.5h-26l22 108h1112l-72 -381h-145c0.666992 4.66699 1.5 13 2.5 25l3 37.5c1 13 2 25 3 36s1.5 17.833 1.5 20.5c0 18.667 -2.66699 36.334 -8 53.001s-13.666 31.334 -24.999 44.001s-26.166 22.5 -44.499 29.5
s-40.833 10.5 -67.5 10.5h-272l-109 -512h465l-27 -123h-465l-123 -577h324c32 0 60.667 4.5 86 13.5s47.333 21.167 66 36.5s34.5 33.166 47.5 53.499s23.5 41.833 31.5 64.5l33 88h146l-95 -381h-1175zM747.998 1606c18.667 19.333 39.002 41.667 61.002 67l65.5 78.5
l63 80.5c20.333 26.667 38.5 51.667 54.5 75h321l-6 -21c-10.667 -12 -25.334 -26.167 -44.001 -42.5s-39.834 -33.833 -63.501 -52.5l-76 -57.5l-82.5 -57.5l-83 -53.5c-27.333 -17 -53 -31.5 -77 -43.5h-139z" />
    <glyph glyph-name="Ecircumflex" unicode="&#xca;" horiz-adv-x="1296" 
d="M-25 109h26.998c21.333 0 42.166 1.33301 62.499 4s38.833 8.33398 55.5 17.001s31.167 21 43.5 37s21.166 37.333 26.499 64l213 1006c2.66699 7.33301 4.83398 15.666 6.50098 24.999s2.5 16.666 2.5 21.999c0 14.667 -3.66699 26.667 -11 36s-17.5 16.5 -30.5 21.5
s-28.667 8.33301 -47 10s-38.166 2.5 -59.499 2.5h-26l22 108h1112l-72 -381h-145c0.666992 4.66699 1.5 13 2.5 25l3 37.5c1 13 2 25 3 36s1.5 17.833 1.5 20.5c0 18.667 -2.66699 36.334 -8 53.001s-13.666 31.334 -24.999 44.001s-26.166 22.5 -44.499 29.5
s-40.833 10.5 -67.5 10.5h-272l-109 -512h465l-27 -123h-465l-123 -577h324c32 0 60.667 4.5 86 13.5s47.333 21.167 66 36.5s34.5 33.166 47.5 53.499s23.5 41.833 31.5 64.5l33 88h146l-95 -381h-1175zM556.998 1606l68.001 66.5l78 77.5l78 80.5
c25.333 27 47.666 52.5 66.999 76.5h276c8.66699 -21.333 19.667 -45.333 33 -72l42.5 -81l44.5 -80c14.667 -26 28 -48.667 40 -68l-6 -27h-129l-42 40l-49 48l-49.5 50c-16.333 16.667 -30.5 32 -42.5 46l-61 -46l-69 -50l-68 -48l-58 -40h-159z" />
    <glyph glyph-name="Edieresis" unicode="&#xcb;" horiz-adv-x="1296" 
d="M-25 109h26.998c21.333 0 42.166 1.33301 62.499 4s38.833 8.33398 55.5 17.001s31.167 21 43.5 37s21.166 37.333 26.499 64l213 1006c2.66699 7.33301 4.83398 15.666 6.50098 24.999s2.5 16.666 2.5 21.999c0 14.667 -3.66699 26.667 -11 36s-17.5 16.5 -30.5 21.5
s-28.667 8.33301 -47 10s-38.166 2.5 -59.499 2.5h-26l22 108h1112l-72 -381h-145c0.666992 4.66699 1.5 13 2.5 25l3 37.5c1 13 2 25 3 36s1.5 17.833 1.5 20.5c0 18.667 -2.66699 36.334 -8 53.001s-13.666 31.334 -24.999 44.001s-26.166 22.5 -44.499 29.5
s-40.833 10.5 -67.5 10.5h-272l-109 -512h465l-27 -123h-465l-123 -577h324c32 0 60.667 4.5 86 13.5s47.333 21.167 66 36.5s34.5 33.166 47.5 53.499s23.5 41.833 31.5 64.5l33 88h146l-95 -381h-1175zM810.998 1755c0 -26.667 -3.66699 -49 -11 -67
s-16.666 -32.667 -27.999 -44s-24.333 -19.5 -39 -24.5s-29.334 -7.5 -44.001 -7.5c-34 0 -61.333 9.16699 -82 27.5s-31 46.5 -31 84.5c0 44 11 79 33 105s52 39 90 39c32.667 0 59.5 -9.33301 80.5 -28s31.5 -47 31.5 -85zM1239 1755c0 -26.667 -3.66699 -49 -11 -67
s-16.666 -32.667 -27.999 -44s-24.333 -19.5 -39 -24.5s-29.334 -7.5 -44.001 -7.5c-34 0 -61.333 9.16699 -82 27.5s-31 46.5 -31 84.5c0 44 11 79 33 105s52 39 90 39c32.667 0 59.5 -9.33301 80.5 -28s31.5 -47 31.5 -85z" />
    <glyph glyph-name="Igrave" unicode="&#xcc;" horiz-adv-x="821" 
d="M-47 0l22.0029 109.001h27c21.333 0 42.166 1.33301 62.499 4s38.833 8.33398 55.5 17.001s31.167 21 43.5 37s21.166 37.333 26.499 64l213 1006c2.66699 7.33301 4.83398 15.666 6.50098 24.999s2.5 16.666 2.5 21.999c0 14.667 -3.66699 26.667 -11 36
s-17.5 16.5 -30.5 21.5s-28.667 8.33301 -47 10s-38.166 2.5 -59.499 2.5h-26l22 108h707l-23 -108h-26c-22.667 0 -44.5 -1.5 -65.5 -4.5s-40.167 -8.83301 -57.5 -17.5s-32.333 -21.334 -45 -38.001s-21.667 -38.334 -27 -65.001l-211 -1004
c-1.33301 -7.33301 -3 -15.666 -5 -24.999s-3 -16.666 -3 -21.999c0 -14.667 3.66699 -26.5 11 -35.5s17.666 -16 30.999 -21s29.166 -8.33301 47.499 -10s38.166 -2.5 59.499 -2.5h27l-23 -109h-704zM629.003 1579c-29.333 17.333 -60.498 39.334 -93.498 66.001
s-64.833 54.5 -95.5 83.5s-58.834 57.5 -84.501 85.5s-45.5 52 -59.5 72l6 21h301c8 -24.667 18.5 -51.334 31.5 -80.001s26.5 -56.667 40.5 -84s28.167 -53 42.5 -77s27.166 -44 38.499 -60l-6 -27h-121z" />
    <glyph glyph-name="Iacute" unicode="&#xcd;" horiz-adv-x="821" 
d="M-47 0l22.0029 109.001h27c21.333 0 42.166 1.33301 62.499 4s38.833 8.33398 55.5 17.001s31.167 21 43.5 37s21.166 37.333 26.499 64l213 1006c2.66699 7.33301 4.83398 15.666 6.50098 24.999s2.5 16.666 2.5 21.999c0 14.667 -3.66699 26.667 -11 36
s-17.5 16.5 -30.5 21.5s-28.667 8.33301 -47 10s-38.166 2.5 -59.499 2.5h-26l22 108h707l-23 -108h-26c-22.667 0 -44.5 -1.5 -65.5 -4.5s-40.167 -8.83301 -57.5 -17.5s-32.333 -21.334 -45 -38.001s-21.667 -38.334 -27 -65.001l-211 -1004
c-1.33301 -7.33301 -3 -15.666 -5 -24.999s-3 -16.666 -3 -21.999c0 -14.667 3.66699 -26.5 11 -35.5s17.666 -16 30.999 -21s29.166 -8.33301 47.499 -10s38.166 -2.5 59.499 -2.5h27l-23 -109h-704zM501.003 1606c18.667 19.333 39.002 41.667 61.002 67l65.5 78.5
l63 80.5c20.333 26.667 38.5 51.667 54.5 75h321l-6 -21c-10.667 -12 -25.334 -26.167 -44.001 -42.5s-39.834 -33.833 -63.501 -52.5l-76 -57.5l-82.5 -57.5l-83 -53.5c-27.333 -17 -53 -31.5 -77 -43.5h-139z" />
    <glyph glyph-name="Icircumflex" unicode="&#xce;" horiz-adv-x="821" 
d="M-47 0l22.0029 109.001h27c21.333 0 42.166 1.33301 62.499 4s38.833 8.33398 55.5 17.001s31.167 21 43.5 37s21.166 37.333 26.499 64l213 1006c2.66699 7.33301 4.83398 15.666 6.50098 24.999s2.5 16.666 2.5 21.999c0 14.667 -3.66699 26.667 -11 36
s-17.5 16.5 -30.5 21.5s-28.667 8.33301 -47 10s-38.166 2.5 -59.499 2.5h-26l22 108h707l-23 -108h-26c-22.667 0 -44.5 -1.5 -65.5 -4.5s-40.167 -8.83301 -57.5 -17.5s-32.333 -21.334 -45 -38.001s-21.667 -38.334 -27 -65.001l-211 -1004
c-1.33301 -7.33301 -3 -15.666 -5 -24.999s-3 -16.666 -3 -21.999c0 -14.667 3.66699 -26.5 11 -35.5s17.666 -16 30.999 -21s29.166 -8.33301 47.499 -10s38.166 -2.5 59.499 -2.5h27l-23 -109h-704zM272.003 1606l68.001 66.5l78 77.5l78 80.5
c25.333 27 47.666 52.5 66.999 76.5h276c8.66699 -21.333 19.667 -45.333 33 -72l42.5 -81l44.5 -80c14.667 -26 28 -48.667 40 -68l-6 -27h-129l-42 40l-49 48l-49.5 50c-16.333 16.667 -30.5 32 -42.5 46l-61 -46l-69 -50l-68 -48l-58 -40h-159z" />
    <glyph glyph-name="Idieresis" unicode="&#xcf;" horiz-adv-x="821" 
d="M-47 0l22.0029 109.001h27c21.333 0 42.166 1.33301 62.499 4s38.833 8.33398 55.5 17.001s31.167 21 43.5 37s21.166 37.333 26.499 64l213 1006c2.66699 7.33301 4.83398 15.666 6.50098 24.999s2.5 16.666 2.5 21.999c0 14.667 -3.66699 26.667 -11 36
s-17.5 16.5 -30.5 21.5s-28.667 8.33301 -47 10s-38.166 2.5 -59.499 2.5h-26l22 108h707l-23 -108h-26c-22.667 0 -44.5 -1.5 -65.5 -4.5s-40.167 -8.83301 -57.5 -17.5s-32.333 -21.334 -45 -38.001s-21.667 -38.334 -27 -65.001l-211 -1004
c-1.33301 -7.33301 -3 -15.666 -5 -24.999s-3 -16.666 -3 -21.999c0 -14.667 3.66699 -26.5 11 -35.5s17.666 -16 30.999 -21s29.166 -8.33301 47.499 -10s38.166 -2.5 59.499 -2.5h27l-23 -109h-704zM556.003 1755c0 -26.667 -3.66699 -49 -11 -67
s-16.666 -32.667 -27.999 -44s-24.333 -19.5 -39 -24.5s-29.334 -7.5 -44.001 -7.5c-34 0 -61.333 9.16699 -82 27.5s-31 46.5 -31 84.5c0 44 11 79 33 105s52 39 90 39c32.667 0 59.5 -9.33301 80.5 -28s31.5 -47 31.5 -85zM984.003 1755c0 -26.667 -3.66699 -49 -11 -67
s-16.666 -32.667 -27.999 -44s-24.333 -19.5 -39 -24.5s-29.334 -7.5 -44.001 -7.5c-34 0 -61.333 9.16699 -82 27.5s-31 46.5 -31 84.5c0 44 11 79 33 105s52 39 90 39c32.667 0 59.5 -9.33301 80.5 -28s31.5 -47 31.5 -85z" />
    <glyph glyph-name="Eth" unicode="&#xd0;" horiz-adv-x="1573" 
d="M-27 109h29.002c21.333 0 42.166 1.33301 62.499 4s38.833 8.33398 55.5 17.001s31.167 21 43.5 37s21.166 37.333 26.499 64l99 471h-168l26 125h168l88 410c2 7.33301 3.83301 15.666 5.5 24.999s2.5 16.666 2.5 21.999c0 14.667 -3.66699 26.667 -11 36
s-17.5 16.5 -30.5 21.5s-28.5 8.33301 -46.5 10s-37.667 2.5 -59 2.5h-27l23 108h655c98 0 185.333 -12 262 -36s141.667 -59.5 195 -106.5s94 -105.167 122 -174.5s42 -149.333 42 -240c0 -81.333 -8.5 -160.166 -25.5 -236.499s-42 -148 -75 -215
s-73.833 -128.333 -122.5 -184s-105 -103.5 -169 -143.5s-135.5 -71 -214.5 -93s-164.833 -33 -257.5 -33h-721zM584.002 127c96 0 181.666 19.502 256.999 58.502s139 93.667 191 164s91.667 154.166 119 251.499s41 204.333 41 321c0 71.333 -8.33301 133.166 -25 185.499
s-40.667 95.5 -72 129.5s-69.166 59.167 -113.499 75.5s-93.833 24.5 -148.5 24.5h-86l-108 -510h258l-27 -125h-258l-121 -575h93z" />
    <glyph glyph-name="Ntilde" unicode="&#xd1;" horiz-adv-x="1614" 
d="M1094 0l-554.999 1159l-193 -917c-3.33301 -15.333 -5.83301 -28.5 -7.5 -39.5s-2.5 -19.167 -2.5 -24.5c0 -14.667 3.66699 -26.5 11 -35.5s17.666 -16 30.999 -21s29.166 -8.33301 47.499 -10s38.166 -2.5 59.499 -2.5h7l-23 -109h-516l22 109h27
c21.333 0 42.166 1.33301 62.499 4s38.833 8.33398 55.5 17.001s31.167 21 43.5 37s21.166 37.333 26.499 64l209 983c8.66699 35.333 13 58.666 13 69.999c0 14.667 -3.66699 26.667 -11 36s-17.5 16.5 -30.5 21.5s-28.667 8.33301 -47 10s-38.166 2.5 -59.499 2.5h-26
l22 108h455l499 -1050l172 809c7.33301 31.333 11 52.333 11 63c0 14.667 -3.83301 26.667 -11.5 36s-18.167 16.5 -31.5 21.5s-29.166 8.33301 -47.499 10s-38.166 2.5 -59.499 2.5h-6l23 108h516l-23 -108h-26c-21.333 0 -42.166 -1.5 -62.499 -4.5
s-38.833 -8.83301 -55.5 -17.5s-31.167 -21 -43.5 -37s-21.5 -37.333 -27.5 -64l-260 -1231h-188zM1247 1774c17.333 0 32.335 3.00098 45.002 9.00098s23.5 14 32.5 24s16.333 21.5 22 34.5s10.167 26.5 13.5 40.5h123c-7.33301 -32.667 -18.5 -66.834 -33.5 -102.501
s-33.667 -68.334 -56 -98.001s-48.333 -54.167 -78 -73.5s-62.834 -29 -99.501 -29s-69.667 6.66699 -99 20s-56.333 28.166 -81 44.499l-69.5 44.5c-21.667 13.333 -43.5 20 -65.5 20c-14 0 -27.333 -3 -40 -9s-24 -14 -34 -24s-18.333 -21.5 -25 -34.5
s-11.334 -26.5 -14.001 -40.5h-122c6 30.667 16.833 63.834 32.5 99.501s35.5 68.5 59.5 98.5s51.5 55 82.5 75s64.833 30 101.5 30c36 0 68.167 -6.66699 96.5 -20s54.333 -28.166 78 -44.499l67 -44.5c21 -13.333 42.167 -20 63.5 -20z" />
    <glyph glyph-name="Ograve" unicode="&#xd2;" horiz-adv-x="1622" 
d="M129 545c0 65.333 8.16992 133.999 24.5029 205.999s40.833 142.833 73.5 212.5s73.334 136 122.001 199s105.167 118.333 169.5 166s136.833 85.667 217.5 114s169 42.5 265 42.5c75.333 0 147.166 -11 215.499 -33s128.5 -56 180.5 -102s93.333 -104.333 124 -175
s46 -155 46 -253c0 -62.667 -7.83301 -129.667 -23.5 -201s-39.334 -142 -71.001 -212s-71.334 -137 -119.001 -201s-103.667 -120.5 -168 -169.5s-137 -88.167 -218 -117.5s-170.167 -44 -267.5 -44c-80.667 0 -155.834 12.167 -225.501 36.5s-130 60.5 -181 108.5
s-91.167 107.333 -120.5 178s-44 152.334 -44 245.001zM463.003 495.999c0 -67.333 7.16699 -125.167 21.5 -173.5s34 -88 59 -119s54.5 -53.833 88.5 -68.5s70.333 -22 109 -22c56.667 0 108.167 13.667 154.5 41s87.833 63.833 124.5 109.5s68.5 98 95.5 157
s49.333 120.167 67 183.5s30.834 126.5 39.501 189.5s13 121.5 13 175.5c0 66.667 -7 124 -21 172s-33.167 87.667 -57.5 119s-53.5 54.5 -87.5 69.5s-71 22.5 -111 22.5c-56.667 0 -108.167 -13.667 -154.5 -41s-87.833 -63.833 -124.5 -109.5s-68.667 -98 -96 -157
s-49.833 -120.333 -67.5 -184s-30.834 -127 -39.501 -190s-13 -121.167 -13 -174.5zM983.003 1579c-29.333 17.333 -60.498 39.334 -93.498 66.001s-64.833 54.5 -95.5 83.5s-58.834 57.5 -84.501 85.5s-45.5 52 -59.5 72l6 21h301c8 -24.667 18.5 -51.334 31.5 -80.001
s26.5 -56.667 40.5 -84s28.167 -53 42.5 -77s27.166 -44 38.499 -60l-6 -27h-121z" />
    <glyph glyph-name="Oacute" unicode="&#xd3;" horiz-adv-x="1622" 
d="M129 545c0 65.333 8.16992 133.999 24.5029 205.999s40.833 142.833 73.5 212.5s73.334 136 122.001 199s105.167 118.333 169.5 166s136.833 85.667 217.5 114s169 42.5 265 42.5c75.333 0 147.166 -11 215.499 -33s128.5 -56 180.5 -102s93.333 -104.333 124 -175
s46 -155 46 -253c0 -62.667 -7.83301 -129.667 -23.5 -201s-39.334 -142 -71.001 -212s-71.334 -137 -119.001 -201s-103.667 -120.5 -168 -169.5s-137 -88.167 -218 -117.5s-170.167 -44 -267.5 -44c-80.667 0 -155.834 12.167 -225.501 36.5s-130 60.5 -181 108.5
s-91.167 107.333 -120.5 178s-44 152.334 -44 245.001zM463.003 495.999c0 -67.333 7.16699 -125.167 21.5 -173.5s34 -88 59 -119s54.5 -53.833 88.5 -68.5s70.333 -22 109 -22c56.667 0 108.167 13.667 154.5 41s87.833 63.833 124.5 109.5s68.5 98 95.5 157
s49.333 120.167 67 183.5s30.834 126.5 39.501 189.5s13 121.5 13 175.5c0 66.667 -7 124 -21 172s-33.167 87.667 -57.5 119s-53.5 54.5 -87.5 69.5s-71 22.5 -111 22.5c-56.667 0 -108.167 -13.667 -154.5 -41s-87.833 -63.833 -124.5 -109.5s-68.667 -98 -96 -157
s-49.833 -120.333 -67.5 -184s-30.834 -127 -39.501 -190s-13 -121.167 -13 -174.5zM881.003 1606c18.667 19.333 39.002 41.667 61.002 67l65.5 78.5l63 80.5c20.333 26.667 38.5 51.667 54.5 75h321l-6 -21c-10.667 -12 -25.334 -26.167 -44.001 -42.5
s-39.834 -33.833 -63.501 -52.5l-76 -57.5l-82.5 -57.5l-83 -53.5c-27.333 -17 -53 -31.5 -77 -43.5h-139z" />
    <glyph glyph-name="Ocircumflex" unicode="&#xd4;" horiz-adv-x="1622" 
d="M129 545c0 65.333 8.16992 133.999 24.5029 205.999s40.833 142.833 73.5 212.5s73.334 136 122.001 199s105.167 118.333 169.5 166s136.833 85.667 217.5 114s169 42.5 265 42.5c75.333 0 147.166 -11 215.499 -33s128.5 -56 180.5 -102s93.333 -104.333 124 -175
s46 -155 46 -253c0 -62.667 -7.83301 -129.667 -23.5 -201s-39.334 -142 -71.001 -212s-71.334 -137 -119.001 -201s-103.667 -120.5 -168 -169.5s-137 -88.167 -218 -117.5s-170.167 -44 -267.5 -44c-80.667 0 -155.834 12.167 -225.501 36.5s-130 60.5 -181 108.5
s-91.167 107.333 -120.5 178s-44 152.334 -44 245.001zM463.003 495.999c0 -67.333 7.16699 -125.167 21.5 -173.5s34 -88 59 -119s54.5 -53.833 88.5 -68.5s70.333 -22 109 -22c56.667 0 108.167 13.667 154.5 41s87.833 63.833 124.5 109.5s68.5 98 95.5 157
s49.333 120.167 67 183.5s30.834 126.5 39.501 189.5s13 121.5 13 175.5c0 66.667 -7 124 -21 172s-33.167 87.667 -57.5 119s-53.5 54.5 -87.5 69.5s-71 22.5 -111 22.5c-56.667 0 -108.167 -13.667 -154.5 -41s-87.833 -63.833 -124.5 -109.5s-68.667 -98 -96 -157
s-49.833 -120.333 -67.5 -184s-30.834 -127 -39.501 -190s-13 -121.167 -13 -174.5zM652.003 1606l68.001 66.5l78 77.5l78 80.5c25.333 27 47.666 52.5 66.999 76.5h276c8.66699 -21.333 19.667 -45.333 33 -72l42.5 -81l44.5 -80c14.667 -26 28 -48.667 40 -68l-6 -27
h-129l-42 40l-49 48l-49.5 50c-16.333 16.667 -30.5 32 -42.5 46l-61 -46l-69 -50l-68 -48l-58 -40h-159z" />
    <glyph glyph-name="Otilde" unicode="&#xd5;" horiz-adv-x="1622" 
d="M129 545c0 65.333 8.16992 133.999 24.5029 205.999s40.833 142.833 73.5 212.5s73.334 136 122.001 199s105.167 118.333 169.5 166s136.833 85.667 217.5 114s169 42.5 265 42.5c75.333 0 147.166 -11 215.499 -33s128.5 -56 180.5 -102s93.333 -104.333 124 -175
s46 -155 46 -253c0 -62.667 -7.83301 -129.667 -23.5 -201s-39.334 -142 -71.001 -212s-71.334 -137 -119.001 -201s-103.667 -120.5 -168 -169.5s-137 -88.167 -218 -117.5s-170.167 -44 -267.5 -44c-80.667 0 -155.834 12.167 -225.501 36.5s-130 60.5 -181 108.5
s-91.167 107.333 -120.5 178s-44 152.334 -44 245.001zM463.003 495.999c0 -67.333 7.16699 -125.167 21.5 -173.5s34 -88 59 -119s54.5 -53.833 88.5 -68.5s70.333 -22 109 -22c56.667 0 108.167 13.667 154.5 41s87.833 63.833 124.5 109.5s68.5 98 95.5 157
s49.333 120.167 67 183.5s30.834 126.5 39.501 189.5s13 121.5 13 175.5c0 66.667 -7 124 -21 172s-33.167 87.667 -57.5 119s-53.5 54.5 -87.5 69.5s-71 22.5 -111 22.5c-56.667 0 -108.167 -13.667 -154.5 -41s-87.833 -63.833 -124.5 -109.5s-68.667 -98 -96 -157
s-49.833 -120.333 -67.5 -184s-30.834 -127 -39.501 -190s-13 -121.167 -13 -174.5zM1184 1774c17.333 0 32.335 3.00098 45.002 9.00098s23.5 14 32.5 24s16.333 21.5 22 34.5s10.167 26.5 13.5 40.5h123c-7.33301 -32.667 -18.5 -66.834 -33.5 -102.501
s-33.667 -68.334 -56 -98.001s-48.333 -54.167 -78 -73.5s-62.834 -29 -99.501 -29s-69.667 6.66699 -99 20s-56.333 28.166 -81 44.499l-69.5 44.5c-21.667 13.333 -43.5 20 -65.5 20c-14 0 -27.333 -3 -40 -9s-24 -14 -34 -24s-18.333 -21.5 -25 -34.5
s-11.334 -26.5 -14.001 -40.5h-122c6 30.667 16.833 63.834 32.5 99.501s35.5 68.5 59.5 98.5s51.5 55 82.5 75s64.833 30 101.5 30c36 0 68.167 -6.66699 96.5 -20s54.333 -28.166 78 -44.499l67 -44.5c21 -13.333 42.167 -20 63.5 -20z" />
    <glyph glyph-name="Odieresis" unicode="&#xd6;" horiz-adv-x="1622" 
d="M129 545c0 65.333 8.16992 133.999 24.5029 205.999s40.833 142.833 73.5 212.5s73.334 136 122.001 199s105.167 118.333 169.5 166s136.833 85.667 217.5 114s169 42.5 265 42.5c75.333 0 147.166 -11 215.499 -33s128.5 -56 180.5 -102s93.333 -104.333 124 -175
s46 -155 46 -253c0 -62.667 -7.83301 -129.667 -23.5 -201s-39.334 -142 -71.001 -212s-71.334 -137 -119.001 -201s-103.667 -120.5 -168 -169.5s-137 -88.167 -218 -117.5s-170.167 -44 -267.5 -44c-80.667 0 -155.834 12.167 -225.501 36.5s-130 60.5 -181 108.5
s-91.167 107.333 -120.5 178s-44 152.334 -44 245.001zM463.003 495.999c0 -67.333 7.16699 -125.167 21.5 -173.5s34 -88 59 -119s54.5 -53.833 88.5 -68.5s70.333 -22 109 -22c56.667 0 108.167 13.667 154.5 41s87.833 63.833 124.5 109.5s68.5 98 95.5 157
s49.333 120.167 67 183.5s30.834 126.5 39.501 189.5s13 121.5 13 175.5c0 66.667 -7 124 -21 172s-33.167 87.667 -57.5 119s-53.5 54.5 -87.5 69.5s-71 22.5 -111 22.5c-56.667 0 -108.167 -13.667 -154.5 -41s-87.833 -63.833 -124.5 -109.5s-68.667 -98 -96 -157
s-49.833 -120.333 -67.5 -184s-30.834 -127 -39.501 -190s-13 -121.167 -13 -174.5zM942.003 1755c0 -26.667 -3.66699 -49 -11 -67s-16.666 -32.667 -27.999 -44s-24.333 -19.5 -39 -24.5s-29.334 -7.5 -44.001 -7.5c-34 0 -61.333 9.16699 -82 27.5s-31 46.5 -31 84.5
c0 44 11 79 33 105s52 39 90 39c32.667 0 59.5 -9.33301 80.5 -28s31.5 -47 31.5 -85zM1370 1755c0 -26.667 -3.66699 -49 -11 -67s-16.666 -32.667 -27.999 -44s-24.333 -19.5 -39 -24.5s-29.334 -7.5 -44.001 -7.5c-34 0 -61.333 9.16699 -82 27.5s-31 46.5 -31 84.5
c0 44 11 79 33 105s52 39 90 39c32.667 0 59.5 -9.33301 80.5 -28s31.5 -47 31.5 -85z" />
    <glyph glyph-name="multiply" unicode="&#xd7;" 
d="M604 631l-301 -303l-104 104l301 303l-301 301l104 103l301 -301l301 303l105 -105l-303 -303l303 -303l-103 -102z" />
    <glyph glyph-name="Oslash" unicode="&#xd8;" horiz-adv-x="1622" 
d="M129 545c0 65.333 8.16797 134 24.501 206s40.833 142.833 73.5 212.5s73.334 136 122.001 199s105.167 118.333 169.5 166s136.833 85.667 217.5 114s169 42.5 265 42.5c108 0 206.333 -22.667 295 -68l97 129h143l-145 -192c53.333 -46 96 -104.667 128 -176
s48 -156.666 48 -255.999c0 -62.667 -7.83301 -129.667 -23.5 -201s-39.334 -142 -71.001 -212s-71.334 -137 -119.001 -201s-103.667 -120.5 -168 -169.5s-137 -88.167 -218 -117.5s-170.167 -44 -267.5 -44c-54 0 -105.333 5.66699 -154 17s-94.667 27.666 -138 48.999
l-93 -125h-145l143 186c-57.333 48.667 -102.333 109.5 -135 182.5s-49 159.167 -49 258.5zM463.001 496c0 -64 6.00195 -119.333 18.002 -166l686 915c-24.667 36 -54.834 62.833 -90.501 80.5s-75.167 26.5 -118.5 26.5c-56.667 0 -108.167 -13.667 -154.5 -41
s-87.833 -63.833 -124.5 -109.5s-68.667 -98 -96 -157s-49.833 -120.333 -67.5 -184s-30.834 -127 -39.501 -190s-13 -121.167 -13 -174.5zM1235 969c0 28.667 -1.33398 56 -4.00098 82s-6.66699 49.667 -12 71l-682 -909c24.667 -35.333 54.5 -60.833 89.5 -76.5
s73.167 -23.5 114.5 -23.5c56.667 0 108.167 13.667 154.5 41s87.833 63.833 124.5 109.5s68.5 98 95.5 157s49.333 120.167 67 183.5s30.834 126.5 39.501 189.5s13 121.5 13 175.5z" />
    <glyph glyph-name="Ugrave" unicode="&#xd9;" horiz-adv-x="1530" 
d="M772 125c62 0 114.328 9.00391 156.995 27.0039s78.334 42.833 107.001 74.5s51.667 69.334 69 113.001s31.333 91.5 42 143.5l158 740c2 11.333 3.83301 23 5.5 35s2.5 20.667 2.5 26c0 14.667 -3.66699 26.667 -11 36s-17.5 16.5 -30.5 21.5s-28.667 8.33301 -47 10
s-38.166 2.5 -59.499 2.5h-26l22 108h539l-23 -108h-26c-22 0 -43.333 -1.5 -64 -4.5s-39.667 -8.83301 -57 -17.5s-32.166 -21.334 -44.499 -38.001s-21.5 -38.334 -27.5 -65.001l-164 -778c-16 -76.667 -39.833 -144.334 -71.5 -203.001s-72 -107.834 -121 -147.501
s-106.833 -69.667 -173.5 -90s-143.334 -30.5 -230.001 -30.5c-80 0 -150.667 7.83301 -212 23.5s-113 38.667 -155 69s-73.833 67.5 -95.5 111.5s-32.5 94 -32.5 150c0 10.667 0.666992 24 2 40s3 32.5 5 49.5s4.33301 33.667 7 50s5.33398 30.5 8.00098 42.5l150 698
c8 36.667 12 60 12 70c0 14.667 -3.66699 26.667 -11 36s-17.5 16.5 -30.5 21.5s-28.5 8.33301 -46.5 10s-37.667 2.5 -59 2.5h-27l23 108h708l-22 -108h-27c-22.667 0 -44.5 -1.5 -65.5 -4.5s-40.167 -8.66699 -57.5 -17s-32.166 -20.5 -44.499 -36.5s-21.5 -37 -27.5 -63
l-155 -721l-8.5 -40c-3 -14.667 -5.66699 -29.834 -8 -45.501s-4.33301 -31.5 -6 -47.5s-2.5 -31 -2.5 -45c0 -68.667 21.333 -120.667 64 -156s105.334 -53 188.001 -53zM1015 1579c-29.333 17.333 -60.498 39.334 -93.498 66.001s-64.833 54.5 -95.5 83.5
s-58.834 57.5 -84.501 85.5s-45.5 52 -59.5 72l6 21h301c8 -24.667 18.5 -51.334 31.5 -80.001s26.5 -56.667 40.5 -84s28.167 -53 42.5 -77s27.166 -44 38.499 -60l-6 -27h-121z" />
    <glyph glyph-name="Uacute" unicode="&#xda;" horiz-adv-x="1530" 
d="M772 125c62 0 114.328 9.00391 156.995 27.0039s78.334 42.833 107.001 74.5s51.667 69.334 69 113.001s31.333 91.5 42 143.5l158 740c2 11.333 3.83301 23 5.5 35s2.5 20.667 2.5 26c0 14.667 -3.66699 26.667 -11 36s-17.5 16.5 -30.5 21.5s-28.667 8.33301 -47 10
s-38.166 2.5 -59.499 2.5h-26l22 108h539l-23 -108h-26c-22 0 -43.333 -1.5 -64 -4.5s-39.667 -8.83301 -57 -17.5s-32.166 -21.334 -44.499 -38.001s-21.5 -38.334 -27.5 -65.001l-164 -778c-16 -76.667 -39.833 -144.334 -71.5 -203.001s-72 -107.834 -121 -147.501
s-106.833 -69.667 -173.5 -90s-143.334 -30.5 -230.001 -30.5c-80 0 -150.667 7.83301 -212 23.5s-113 38.667 -155 69s-73.833 67.5 -95.5 111.5s-32.5 94 -32.5 150c0 10.667 0.666992 24 2 40s3 32.5 5 49.5s4.33301 33.667 7 50s5.33398 30.5 8.00098 42.5l150 698
c8 36.667 12 60 12 70c0 14.667 -3.66699 26.667 -11 36s-17.5 16.5 -30.5 21.5s-28.5 8.33301 -46.5 10s-37.667 2.5 -59 2.5h-27l23 108h708l-22 -108h-27c-22.667 0 -44.5 -1.5 -65.5 -4.5s-40.167 -8.66699 -57.5 -17s-32.166 -20.5 -44.499 -36.5s-21.5 -37 -27.5 -63
l-155 -721l-8.5 -40c-3 -14.667 -5.66699 -29.834 -8 -45.501s-4.33301 -31.5 -6 -47.5s-2.5 -31 -2.5 -45c0 -68.667 21.333 -120.667 64 -156s105.334 -53 188.001 -53zM913.995 1606c18.667 19.333 39.002 41.667 61.002 67l65.5 78.5l63 80.5
c20.333 26.667 38.5 51.667 54.5 75h321l-6 -21c-10.667 -12 -25.334 -26.167 -44.001 -42.5s-39.834 -33.833 -63.501 -52.5l-76 -57.5l-82.5 -57.5l-83 -53.5c-27.333 -17 -53 -31.5 -77 -43.5h-139z" />
    <glyph glyph-name="Ucircumflex" unicode="&#xdb;" horiz-adv-x="1530" 
d="M772 125c62 0 114.328 9.00391 156.995 27.0039s78.334 42.833 107.001 74.5s51.667 69.334 69 113.001s31.333 91.5 42 143.5l158 740c2 11.333 3.83301 23 5.5 35s2.5 20.667 2.5 26c0 14.667 -3.66699 26.667 -11 36s-17.5 16.5 -30.5 21.5s-28.667 8.33301 -47 10
s-38.166 2.5 -59.499 2.5h-26l22 108h539l-23 -108h-26c-22 0 -43.333 -1.5 -64 -4.5s-39.667 -8.83301 -57 -17.5s-32.166 -21.334 -44.499 -38.001s-21.5 -38.334 -27.5 -65.001l-164 -778c-16 -76.667 -39.833 -144.334 -71.5 -203.001s-72 -107.834 -121 -147.501
s-106.833 -69.667 -173.5 -90s-143.334 -30.5 -230.001 -30.5c-80 0 -150.667 7.83301 -212 23.5s-113 38.667 -155 69s-73.833 67.5 -95.5 111.5s-32.5 94 -32.5 150c0 10.667 0.666992 24 2 40s3 32.5 5 49.5s4.33301 33.667 7 50s5.33398 30.5 8.00098 42.5l150 698
c8 36.667 12 60 12 70c0 14.667 -3.66699 26.667 -11 36s-17.5 16.5 -30.5 21.5s-28.5 8.33301 -46.5 10s-37.667 2.5 -59 2.5h-27l23 108h708l-22 -108h-27c-22.667 0 -44.5 -1.5 -65.5 -4.5s-40.167 -8.66699 -57.5 -17s-32.166 -20.5 -44.499 -36.5s-21.5 -37 -27.5 -63
l-155 -721l-8.5 -40c-3 -14.667 -5.66699 -29.834 -8 -45.501s-4.33301 -31.5 -6 -47.5s-2.5 -31 -2.5 -45c0 -68.667 21.333 -120.667 64 -156s105.334 -53 188.001 -53zM696.995 1606l68.001 66.5l78 77.5l78 80.5c25.333 27 47.666 52.5 66.999 76.5h276
c8.66699 -21.333 19.667 -45.333 33 -72l42.5 -81l44.5 -80c14.667 -26 28 -48.667 40 -68l-6 -27h-129l-42 40l-49 48l-49.5 50c-16.333 16.667 -30.5 32 -42.5 46l-61 -46l-69 -50l-68 -48l-58 -40h-159z" />
    <glyph glyph-name="Udieresis" unicode="&#xdc;" horiz-adv-x="1530" 
d="M772 125c62 0 114.328 9.00391 156.995 27.0039s78.334 42.833 107.001 74.5s51.667 69.334 69 113.001s31.333 91.5 42 143.5l158 740c2 11.333 3.83301 23 5.5 35s2.5 20.667 2.5 26c0 14.667 -3.66699 26.667 -11 36s-17.5 16.5 -30.5 21.5s-28.667 8.33301 -47 10
s-38.166 2.5 -59.499 2.5h-26l22 108h539l-23 -108h-26c-22 0 -43.333 -1.5 -64 -4.5s-39.667 -8.83301 -57 -17.5s-32.166 -21.334 -44.499 -38.001s-21.5 -38.334 -27.5 -65.001l-164 -778c-16 -76.667 -39.833 -144.334 -71.5 -203.001s-72 -107.834 -121 -147.501
s-106.833 -69.667 -173.5 -90s-143.334 -30.5 -230.001 -30.5c-80 0 -150.667 7.83301 -212 23.5s-113 38.667 -155 69s-73.833 67.5 -95.5 111.5s-32.5 94 -32.5 150c0 10.667 0.666992 24 2 40s3 32.5 5 49.5s4.33301 33.667 7 50s5.33398 30.5 8.00098 42.5l150 698
c8 36.667 12 60 12 70c0 14.667 -3.66699 26.667 -11 36s-17.5 16.5 -30.5 21.5s-28.5 8.33301 -46.5 10s-37.667 2.5 -59 2.5h-27l23 108h708l-22 -108h-27c-22.667 0 -44.5 -1.5 -65.5 -4.5s-40.167 -8.66699 -57.5 -17s-32.166 -20.5 -44.499 -36.5s-21.5 -37 -27.5 -63
l-155 -721l-8.5 -40c-3 -14.667 -5.66699 -29.834 -8 -45.501s-4.33301 -31.5 -6 -47.5s-2.5 -31 -2.5 -45c0 -68.667 21.333 -120.667 64 -156s105.334 -53 188.001 -53zM955.995 1755c0 -26.667 -3.66699 -49 -11 -67s-16.666 -32.667 -27.999 -44
s-24.333 -19.5 -39 -24.5s-29.334 -7.5 -44.001 -7.5c-34 0 -61.333 9.16699 -82 27.5s-31 46.5 -31 84.5c0 44 11 79 33 105s52 39 90 39c32.667 0 59.5 -9.33301 80.5 -28s31.5 -47 31.5 -85zM1384 1755c0 -26.667 -3.66699 -49 -11 -67s-16.666 -32.667 -27.999 -44
s-24.333 -19.5 -39 -24.5s-29.334 -7.5 -44.001 -7.5c-34 0 -61.333 9.16699 -82 27.5s-31 46.5 -31 84.5c0 44 11 79 33 105s52 39 90 39c32.667 0 59.5 -9.33301 80.5 -28s31.5 -47 31.5 -85z" />
    <glyph glyph-name="Yacute" unicode="&#xdd;" horiz-adv-x="1419" 
d="M227 0l23.0039 109.003h55c21.333 0 42 1.5 62 4.5s38.333 9 55 18s31 21.5 43 37.5s21 37.333 27 64l59 285l-221 727c-6 20 -12.167 37 -18.5 51s-13.833 25.167 -22.5 33.5s-19.5 14.5 -32.5 18.5s-29.5 6 -49.5 6h-27l23 108h665l-22 -108h-92
c-31.333 0 -53.5 -5.33301 -66.5 -16s-19.5 -25.334 -19.5 -44.001c0 -12 2 -29.333 6 -52s10 -49.667 18 -81l74 -289l15 -64c5.33301 -22.667 10.166 -45.334 14.499 -68.001s8 -44.834 11 -66.501s5.16699 -40.834 6.5 -57.501c12.667 27.333 32 62 58 104
s56.667 88 92 138l202 289c16.667 23.333 31.167 48.666 43.5 75.999s18.5 52.333 18.5 75c0 18.667 -9.5 32.667 -28.5 42s-51.167 14 -96.5 14h-43l24 108h537l-23 -108h-38c-15.333 0 -29.5 -2 -42.5 -6s-26.167 -11.167 -39.5 -21.5s-27.5 -24 -42.5 -41
s-31.833 -38.5 -50.5 -64.5l-507 -705l-62 -291c-1.33301 -7.33301 -3 -15.666 -5 -24.999s-3 -16.666 -3 -21.999c0 -14.667 3.66699 -26.5 11 -35.5s17.666 -16 30.999 -21s29.166 -8.33301 47.499 -10s38.166 -2.5 59.499 -2.5h50l-23 -109h-756zM832.004 1606
c18.667 19.333 39.002 41.667 61.002 67l65.5 78.5l63 80.5c20.333 26.667 38.5 51.667 54.5 75h321l-6 -21c-10.667 -12 -25.334 -26.167 -44.001 -42.5s-39.834 -33.833 -63.501 -52.5l-76 -57.5l-82.5 -57.5l-83 -53.5c-27.333 -17 -53 -31.5 -77 -43.5h-139z" />
    <glyph glyph-name="Thorn" unicode="&#xde;" horiz-adv-x="1307" 
d="M-47 0l22.0029 109.004h27c21.333 0 42.166 1.33301 62.499 4s38.833 8.33398 55.5 17.001s31.167 21 43.5 37s21.166 37.333 26.499 64l213 1006c2.66699 7.33301 4.83398 15.666 6.50098 24.999s2.5 16.666 2.5 21.999c0 14.667 -3.66699 26.667 -11 36
s-17.5 16.5 -30.5 21.5s-28.667 8.33301 -47 10s-38.166 2.5 -59.499 2.5h-26l22 108h707l-23 -108h-26c-22.667 0 -44.5 -1.5 -65.5 -4.5s-40.167 -8.83301 -57.5 -17.5s-32.333 -21.334 -45 -38.001s-21.667 -38.334 -27 -65.001l-6 -31h67
c80.667 0 153.167 -8.5 217.5 -25.5s119.166 -42.333 164.499 -76s80.166 -75.334 104.499 -125.001s36.5 -107.167 36.5 -172.5c0 -34.667 -3.33301 -71.334 -10 -110.001s-18.5 -76.667 -35.5 -114s-40.5 -72.833 -70.5 -106.5s-68.167 -63.334 -114.5 -89.001
s-102.166 -46.167 -167.499 -61.5s-141.666 -23 -228.999 -23h-154l-14 -70c-1.33301 -7.33301 -3 -15.666 -5 -24.999s-3 -16.666 -3 -21.999c0 -14.667 3.66699 -26.5 11 -35.5s17.666 -16 30.999 -21s29.166 -8.33301 47.499 -10s38.166 -2.5 59.499 -2.5h27l-23 -109
h-704zM551.003 414.004h84c62 0 114.5 9.33301 157.5 28s77.833 44.667 104.5 78s46 73.333 58 120s18 97.667 18 153c0 50.667 -5.83301 94 -17.5 130s-28 65.5 -49 88.5s-46 39.667 -75 50s-60.5 15.5 -94.5 15.5h-45z" />
    <glyph glyph-name="germandbls" unicode="&#xdf;" horiz-adv-x="1423" 
d="M895 1460c-36.667 0 -69.168 -6.5 -97.501 -19.5s-53 -31.667 -74 -56s-38.667 -54 -53 -89s-25.5 -74.833 -33.5 -119.5l-256 -1192c-13.333 -62.667 -31.5 -118 -54.5 -166s-49 -89.667 -78 -125s-60.5 -64.833 -94.5 -88.5s-69 -42.667 -105 -57
s-72.5 -24.5 -109.5 -30.5s-72.833 -9 -107.5 -9c-26.667 0 -51.834 2.16699 -75.501 6.5s-42.167 9.16602 -55.5 14.499l29 113c11.333 -3.33301 24.833 -6.33301 40.5 -9s34.167 -4 55.5 -4c30 0 57 6.5 81 19.5s45.833 33.667 65.5 62s37.5 64.833 53.5 109.5
s31.333 98.667 46 162l207 976h-166l26 140h170l17 63c18 77.333 45.167 142.5 81.5 195.5s79.833 96 130.5 129s107.334 56.833 170.001 71.5s129.667 22 201 22c74 0 138.667 -7.66699 194 -23s101.5 -36.833 138.5 -64.5s64.667 -61.167 83 -100.5s27.5 -83 27.5 -131
c0 -17.333 -1.16699 -36.833 -3.5 -58.5s-5.16602 -43.834 -8.49902 -66.501s-7.16602 -45.167 -11.499 -67.5s-8.83301 -42.833 -13.5 -61.5h-117c-40.667 0 -75.667 -4 -105 -12s-53.5 -19.167 -72.5 -33.5s-33 -31.5 -42 -51.5s-13.5 -42.333 -13.5 -67
c0 -19.333 2.83301 -37 8.5 -53s15.167 -31.667 28.5 -47s31.5 -31.166 54.5 -47.499s51.833 -34.833 86.5 -55.5c66 -38 113.167 -81.167 141.5 -129.5s42.5 -105.5 42.5 -171.5c0 -54 -10.833 -103 -32.5 -147s-52.334 -81.667 -92.001 -113s-87.334 -55.5 -143.001 -72.5
s-117.5 -25.5 -185.5 -25.5c-51.333 0 -98 5 -140 15s-78 24.667 -108 44s-53.167 42.666 -69.5 69.999s-24.5 58.666 -24.5 93.999c0 26.667 5 50.5 15 71.5s24.333 38.667 43 53s40.834 25.166 66.501 32.499s54.5 11 86.5 11c0 -32 2.66699 -63.667 8 -95
s14.166 -59.666 26.499 -84.999s28.333 -45.833 48 -61.5s43.5 -23.5 71.5 -23.5c45.333 0 79.833 15 103.5 45s35.5 69.667 35.5 119c0 21.333 -2 41.5 -6 60.5s-11.667 37.5 -23 55.5s-27.166 35.667 -47.499 53s-46.5 35.666 -78.5 54.999
c-64 36.667 -113.833 80.334 -149.5 131.001s-53.5 109.334 -53.5 176.001c0 55.333 10.5 102.833 31.5 142.5s48.667 72.334 83 98.001s73.166 44.5 116.499 56.5s87.666 18 132.999 18c6.66699 31.333 11.834 59.833 15.501 85.5s5.5 49.834 5.5 72.501
c0 56 -13.667 101 -41 135s-69.666 51 -126.999 51z" />
    <glyph glyph-name="agrave" unicode="&#xe0;" horiz-adv-x="1362" 
d="M969 -20c-60.667 0 -109.329 13.834 -145.996 41.501s-55 68.167 -55 121.5c0 21.333 1 42.166 3 62.499s5.66699 43.833 11 70.5h-14c-25.333 -47.333 -50.5 -89.5 -75.5 -126.5s-52.833 -68 -83.5 -93s-64.834 -44 -102.501 -57s-81.5 -19.5 -131.5 -19.5
c-48.667 0 -91.334 9.5 -128.001 28.5s-67.167 45.167 -91.5 78.5s-42.666 72.833 -54.999 118.5s-18.5 95.167 -18.5 148.5s6.16699 109.166 18.5 167.499s30.833 115.833 55.5 172.5s55.167 110.667 91.5 162s78.333 96.333 126 135s100.834 69.5 159.501 92.5
s122.667 34.5 192 34.5c26.667 0 53.834 -2.16699 81.501 -6.5s54.167 -9.83301 79.5 -16.5s49.166 -14.167 71.499 -22.5s41.166 -16.833 56.499 -25.5l108 49h109l-135 -639c-2.66699 -11.333 -6 -26.333 -10 -45s-7.83301 -38.5 -11.5 -59.5
s-6.83398 -41.333 -9.50098 -61s-4 -36.167 -4 -49.5c0 -34 6.66699 -59.333 20 -76s30.666 -25 51.999 -25c19.333 0 37.833 4.16699 55.5 12.5s37.167 18.5 58.5 30.5l45 -82c-17.333 -13.333 -37 -27.166 -59 -41.499s-46.5 -27.5 -73.5 -39.5s-56.333 -21.833 -88 -29.5
s-65.834 -11.5 -102.501 -11.5zM393.005 352.001c0 -39.333 2.83398 -72.3301 8.50098 -98.9971s13.334 -48.167 23.001 -64.5s21.334 -28 35.001 -35s28.5 -10.5 44.5 -10.5c30 0 61 13 93 39s62 60.167 90 102.5s53.167 90.166 75.5 143.499s39.166 107.333 50.499 162
l72 340c-13.333 19.333 -31.833 33.666 -55.5 42.999s-48.834 14 -75.501 14c-40 0 -76.5 -10.333 -109.5 -31s-62.833 -48.334 -89.5 -83.001s-50.167 -74 -70.5 -118s-37.333 -89.667 -51 -137s-23.834 -94 -30.501 -140s-10 -88 -10 -126zM758.006 1241
c-29.333 17.333 -60.498 39.334 -93.498 66.001s-64.833 54.5 -95.5 83.5s-58.834 57.5 -84.501 85.5s-45.5 52 -59.5 72l6 21h301c8 -24.667 18.5 -51.334 31.5 -80.001s26.5 -56.667 40.5 -84s28.167 -53 42.5 -77s27.166 -44 38.499 -60l-6 -27h-121z" />
    <glyph glyph-name="aacute" unicode="&#xe1;" horiz-adv-x="1362" 
d="M969 -20c-60.667 0 -109.329 13.834 -145.996 41.501s-55 68.167 -55 121.5c0 21.333 1 42.166 3 62.499s5.66699 43.833 11 70.5h-14c-25.333 -47.333 -50.5 -89.5 -75.5 -126.5s-52.833 -68 -83.5 -93s-64.834 -44 -102.501 -57s-81.5 -19.5 -131.5 -19.5
c-48.667 0 -91.334 9.5 -128.001 28.5s-67.167 45.167 -91.5 78.5s-42.666 72.833 -54.999 118.5s-18.5 95.167 -18.5 148.5s6.16699 109.166 18.5 167.499s30.833 115.833 55.5 172.5s55.167 110.667 91.5 162s78.333 96.333 126 135s100.834 69.5 159.501 92.5
s122.667 34.5 192 34.5c26.667 0 53.834 -2.16699 81.501 -6.5s54.167 -9.83301 79.5 -16.5s49.166 -14.167 71.499 -22.5s41.166 -16.833 56.499 -25.5l108 49h109l-135 -639c-2.66699 -11.333 -6 -26.333 -10 -45s-7.83301 -38.5 -11.5 -59.5
s-6.83398 -41.333 -9.50098 -61s-4 -36.167 -4 -49.5c0 -34 6.66699 -59.333 20 -76s30.666 -25 51.999 -25c19.333 0 37.833 4.16699 55.5 12.5s37.167 18.5 58.5 30.5l45 -82c-17.333 -13.333 -37 -27.166 -59 -41.499s-46.5 -27.5 -73.5 -39.5s-56.333 -21.833 -88 -29.5
s-65.834 -11.5 -102.501 -11.5zM393.005 352.001c0 -39.333 2.83398 -72.3301 8.50098 -98.9971s13.334 -48.167 23.001 -64.5s21.334 -28 35.001 -35s28.5 -10.5 44.5 -10.5c30 0 61 13 93 39s62 60.167 90 102.5s53.167 90.166 75.5 143.499s39.166 107.333 50.499 162
l72 340c-13.333 19.333 -31.833 33.666 -55.5 42.999s-48.834 14 -75.501 14c-40 0 -76.5 -10.333 -109.5 -31s-62.833 -48.334 -89.5 -83.001s-50.167 -74 -70.5 -118s-37.333 -89.667 -51 -137s-23.834 -94 -30.501 -140s-10 -88 -10 -126zM637.006 1268
c18.667 19.333 39.002 41.667 61.002 67l65.5 78.5l63 80.5c20.333 26.667 38.5 51.667 54.5 75h321l-6 -21c-10.667 -12 -25.334 -26.167 -44.001 -42.5s-39.834 -33.833 -63.501 -52.5l-76 -57.5l-82.5 -57.5l-83 -53.5c-27.333 -17 -53 -31.5 -77 -43.5h-139z" />
    <glyph glyph-name="acircumflex" unicode="&#xe2;" horiz-adv-x="1362" 
d="M969 -20c-60.667 0 -109.329 13.834 -145.996 41.501s-55 68.167 -55 121.5c0 21.333 1 42.166 3 62.499s5.66699 43.833 11 70.5h-14c-25.333 -47.333 -50.5 -89.5 -75.5 -126.5s-52.833 -68 -83.5 -93s-64.834 -44 -102.501 -57s-81.5 -19.5 -131.5 -19.5
c-48.667 0 -91.334 9.5 -128.001 28.5s-67.167 45.167 -91.5 78.5s-42.666 72.833 -54.999 118.5s-18.5 95.167 -18.5 148.5s6.16699 109.166 18.5 167.499s30.833 115.833 55.5 172.5s55.167 110.667 91.5 162s78.333 96.333 126 135s100.834 69.5 159.501 92.5
s122.667 34.5 192 34.5c26.667 0 53.834 -2.16699 81.501 -6.5s54.167 -9.83301 79.5 -16.5s49.166 -14.167 71.499 -22.5s41.166 -16.833 56.499 -25.5l108 49h109l-135 -639c-2.66699 -11.333 -6 -26.333 -10 -45s-7.83301 -38.5 -11.5 -59.5
s-6.83398 -41.333 -9.50098 -61s-4 -36.167 -4 -49.5c0 -34 6.66699 -59.333 20 -76s30.666 -25 51.999 -25c19.333 0 37.833 4.16699 55.5 12.5s37.167 18.5 58.5 30.5l45 -82c-17.333 -13.333 -37 -27.166 -59 -41.499s-46.5 -27.5 -73.5 -39.5s-56.333 -21.833 -88 -29.5
s-65.834 -11.5 -102.501 -11.5zM393.005 352.001c0 -39.333 2.83398 -72.3301 8.50098 -98.9971s13.334 -48.167 23.001 -64.5s21.334 -28 35.001 -35s28.5 -10.5 44.5 -10.5c30 0 61 13 93 39s62 60.167 90 102.5s53.167 90.166 75.5 143.499s39.166 107.333 50.499 162
l72 340c-13.333 19.333 -31.833 33.666 -55.5 42.999s-48.834 14 -75.501 14c-40 0 -76.5 -10.333 -109.5 -31s-62.833 -48.334 -89.5 -83.001s-50.167 -74 -70.5 -118s-37.333 -89.667 -51 -137s-23.834 -94 -30.501 -140s-10 -88 -10 -126zM389.006 1268l68.001 66.5
l78 77.5l78 80.5c25.333 27 47.666 52.5 66.999 76.5h276c8.66699 -21.333 19.667 -45.333 33 -72l42.5 -81l44.5 -80c14.667 -26 28 -48.667 40 -68l-6 -27h-129l-42 40l-49 48l-49.5 50c-16.333 16.667 -30.5 32 -42.5 46l-61 -46l-69 -50l-68 -48l-58 -40h-159z" />
    <glyph glyph-name="atilde" unicode="&#xe3;" horiz-adv-x="1362" 
d="M969 -20c-60.667 0 -109.329 13.834 -145.996 41.501s-55 68.167 -55 121.5c0 21.333 1 42.166 3 62.499s5.66699 43.833 11 70.5h-14c-25.333 -47.333 -50.5 -89.5 -75.5 -126.5s-52.833 -68 -83.5 -93s-64.834 -44 -102.501 -57s-81.5 -19.5 -131.5 -19.5
c-48.667 0 -91.334 9.5 -128.001 28.5s-67.167 45.167 -91.5 78.5s-42.666 72.833 -54.999 118.5s-18.5 95.167 -18.5 148.5s6.16699 109.166 18.5 167.499s30.833 115.833 55.5 172.5s55.167 110.667 91.5 162s78.333 96.333 126 135s100.834 69.5 159.501 92.5
s122.667 34.5 192 34.5c26.667 0 53.834 -2.16699 81.501 -6.5s54.167 -9.83301 79.5 -16.5s49.166 -14.167 71.499 -22.5s41.166 -16.833 56.499 -25.5l108 49h109l-135 -639c-2.66699 -11.333 -6 -26.333 -10 -45s-7.83301 -38.5 -11.5 -59.5
s-6.83398 -41.333 -9.50098 -61s-4 -36.167 -4 -49.5c0 -34 6.66699 -59.333 20 -76s30.666 -25 51.999 -25c19.333 0 37.833 4.16699 55.5 12.5s37.167 18.5 58.5 30.5l45 -82c-17.333 -13.333 -37 -27.166 -59 -41.499s-46.5 -27.5 -73.5 -39.5s-56.333 -21.833 -88 -29.5
s-65.834 -11.5 -102.501 -11.5zM393.005 352.001c0 -39.333 2.83398 -72.3301 8.50098 -98.9971s13.334 -48.167 23.001 -64.5s21.334 -28 35.001 -35s28.5 -10.5 44.5 -10.5c30 0 61 13 93 39s62 60.167 90 102.5s53.167 90.166 75.5 143.499s39.166 107.333 50.499 162
l72 340c-13.333 19.333 -31.833 33.666 -55.5 42.999s-48.834 14 -75.501 14c-40 0 -76.5 -10.333 -109.5 -31s-62.833 -48.334 -89.5 -83.001s-50.167 -74 -70.5 -118s-37.333 -89.667 -51 -137s-23.834 -94 -30.501 -140s-10 -88 -10 -126zM979.006 1436
c17.333 0 32.335 3.00098 45.002 9.00098s23.5 14 32.5 24s16.333 21.5 22 34.5s10.167 26.5 13.5 40.5h123c-7.33301 -32.667 -18.5 -66.834 -33.5 -102.501s-33.667 -68.334 -56 -98.001s-48.333 -54.167 -78 -73.5s-62.834 -29 -99.501 -29s-69.667 6.66699 -99 20
s-56.333 28.166 -81 44.499l-69.5 44.5c-21.667 13.333 -43.5 20 -65.5 20c-14 0 -27.333 -3 -40 -9s-24 -14 -34 -24s-18.333 -21.5 -25 -34.5s-11.334 -26.5 -14.001 -40.5h-122c6 30.667 16.833 63.834 32.5 99.501s35.5 68.5 59.5 98.5s51.5 55 82.5 75
s64.833 30 101.5 30c36 0 68.167 -6.66699 96.5 -20s54.333 -28.166 78 -44.499l67 -44.5c21 -13.333 42.167 -20 63.5 -20z" />
    <glyph glyph-name="adieresis" unicode="&#xe4;" horiz-adv-x="1362" 
d="M969 -20c-60.667 0 -109.329 13.834 -145.996 41.501s-55 68.167 -55 121.5c0 21.333 1 42.166 3 62.499s5.66699 43.833 11 70.5h-14c-25.333 -47.333 -50.5 -89.5 -75.5 -126.5s-52.833 -68 -83.5 -93s-64.834 -44 -102.501 -57s-81.5 -19.5 -131.5 -19.5
c-48.667 0 -91.334 9.5 -128.001 28.5s-67.167 45.167 -91.5 78.5s-42.666 72.833 -54.999 118.5s-18.5 95.167 -18.5 148.5s6.16699 109.166 18.5 167.499s30.833 115.833 55.5 172.5s55.167 110.667 91.5 162s78.333 96.333 126 135s100.834 69.5 159.501 92.5
s122.667 34.5 192 34.5c26.667 0 53.834 -2.16699 81.501 -6.5s54.167 -9.83301 79.5 -16.5s49.166 -14.167 71.499 -22.5s41.166 -16.833 56.499 -25.5l108 49h109l-135 -639c-2.66699 -11.333 -6 -26.333 -10 -45s-7.83301 -38.5 -11.5 -59.5
s-6.83398 -41.333 -9.50098 -61s-4 -36.167 -4 -49.5c0 -34 6.66699 -59.333 20 -76s30.666 -25 51.999 -25c19.333 0 37.833 4.16699 55.5 12.5s37.167 18.5 58.5 30.5l45 -82c-17.333 -13.333 -37 -27.166 -59 -41.499s-46.5 -27.5 -73.5 -39.5s-56.333 -21.833 -88 -29.5
s-65.834 -11.5 -102.501 -11.5zM393.005 352.001c0 -39.333 2.83398 -72.3301 8.50098 -98.9971s13.334 -48.167 23.001 -64.5s21.334 -28 35.001 -35s28.5 -10.5 44.5 -10.5c30 0 61 13 93 39s62 60.167 90 102.5s53.167 90.166 75.5 143.499s39.166 107.333 50.499 162
l72 340c-13.333 19.333 -31.833 33.666 -55.5 42.999s-48.834 14 -75.501 14c-40 0 -76.5 -10.333 -109.5 -31s-62.833 -48.334 -89.5 -83.001s-50.167 -74 -70.5 -118s-37.333 -89.667 -51 -137s-23.834 -94 -30.501 -140s-10 -88 -10 -126zM659.006 1417
c0 -26.667 -3.66699 -49 -11 -67s-16.666 -32.667 -27.999 -44s-24.333 -19.5 -39 -24.5s-29.334 -7.5 -44.001 -7.5c-34 0 -61.333 9.16699 -82 27.5s-31 46.5 -31 84.5c0 44 11 79 33 105s52 39 90 39c32.667 0 59.5 -9.33301 80.5 -28s31.5 -47 31.5 -85zM1087.01 1417
c0 -26.667 -3.66699 -49 -11 -67s-16.666 -32.667 -27.999 -44s-24.333 -19.5 -39 -24.5s-29.334 -7.5 -44.001 -7.5c-34 0 -61.333 9.16699 -82 27.5s-31 46.5 -31 84.5c0 44 11 79 33 105s52 39 90 39c32.667 0 59.5 -9.33301 80.5 -28s31.5 -47 31.5 -85z" />
    <glyph glyph-name="aring" unicode="&#xe5;" horiz-adv-x="1362" 
d="M969 -20c-60.667 0 -109.329 13.834 -145.996 41.501s-55 68.167 -55 121.5c0 21.333 1 42.166 3 62.499s5.66699 43.833 11 70.5h-14c-25.333 -47.333 -50.5 -89.5 -75.5 -126.5s-52.833 -68 -83.5 -93s-64.834 -44 -102.501 -57s-81.5 -19.5 -131.5 -19.5
c-48.667 0 -91.334 9.5 -128.001 28.5s-67.167 45.167 -91.5 78.5s-42.666 72.833 -54.999 118.5s-18.5 95.167 -18.5 148.5s6.16699 109.166 18.5 167.499s30.833 115.833 55.5 172.5s55.167 110.667 91.5 162s78.333 96.333 126 135s100.834 69.5 159.501 92.5
s122.667 34.5 192 34.5c26.667 0 53.834 -2.16699 81.501 -6.5s54.167 -9.83301 79.5 -16.5s49.166 -14.167 71.499 -22.5s41.166 -16.833 56.499 -25.5l108 49h109l-135 -639c-2.66699 -11.333 -6 -26.333 -10 -45s-7.83301 -38.5 -11.5 -59.5
s-6.83398 -41.333 -9.50098 -61s-4 -36.167 -4 -49.5c0 -34 6.66699 -59.333 20 -76s30.666 -25 51.999 -25c19.333 0 37.833 4.16699 55.5 12.5s37.167 18.5 58.5 30.5l45 -82c-17.333 -13.333 -37 -27.166 -59 -41.499s-46.5 -27.5 -73.5 -39.5s-56.333 -21.833 -88 -29.5
s-65.834 -11.5 -102.501 -11.5zM393.005 352.001c0 -39.333 2.83398 -72.3301 8.50098 -98.9971s13.334 -48.167 23.001 -64.5s21.334 -28 35.001 -35s28.5 -10.5 44.5 -10.5c30 0 61 13 93 39s62 60.167 90 102.5s53.167 90.166 75.5 143.499s39.166 107.333 50.499 162
l72 340c-13.333 19.333 -31.833 33.666 -55.5 42.999s-48.834 14 -75.501 14c-40 0 -76.5 -10.333 -109.5 -31s-62.833 -48.334 -89.5 -83.001s-50.167 -74 -70.5 -118s-37.333 -89.667 -51 -137s-23.834 -94 -30.501 -140s-10 -88 -10 -126zM1049.01 1432
c0 -36.667 -6.33301 -68.834 -19 -96.501s-30.167 -51 -52.5 -70s-48.5 -33.333 -78.5 -43s-62 -14.5 -96 -14.5s-66 4.83301 -96 14.5s-56.167 24 -78.5 43s-39.833 42.333 -52.5 70s-19 59.834 -19 96.501c0 36 6.33301 68 19 96s30.167 51.333 52.5 70
s48.5 32.834 78.5 42.501s62 14.5 96 14.5s66 -4.83301 96 -14.5s56.167 -23.834 78.5 -42.501s39.833 -42 52.5 -70s19 -60 19 -96zM924.006 1432c0 20 -3.33301 36.833 -10 50.5s-15.5 25 -26.5 34s-23.833 15.5 -38.5 19.5s-30 6 -46 6c-16.667 0 -32.334 -2 -47.001 -6
s-27.5 -10.5 -38.5 -19.5s-19.667 -20.333 -26 -34s-9.5 -30.5 -9.5 -50.5s3.16699 -37 9.5 -51s15 -25.5 26 -34.5s23.833 -15.5 38.5 -19.5s30.334 -6 47.001 -6c16 0 31.333 2 46 6s27.5 10.5 38.5 19.5s19.833 20.5 26.5 34.5s10 31 10 51z" />
    <glyph glyph-name="ae" unicode="&#xe6;" horiz-adv-x="1802" 
d="M1325 135c33.333 0 65 4.83203 95 14.499s57.667 22.334 83 38.001s48.333 33.334 69 53.001s38 39.834 52 60.501c8 -10 14.5 -22.833 19.5 -38.5s7.5 -32.167 7.5 -49.5c0 -24.667 -8 -50.667 -24 -78s-40.5 -52.5 -73.5 -75.5s-75.167 -42 -126.5 -57
s-112 -22.5 -182 -22.5c-124.667 0 -224.5 25 -299.5 75s-125.167 123.667 -150.5 221h-19c-25.333 -47.333 -51 -89.5 -77 -126.5s-54.667 -68 -86 -93s-66.333 -44 -105 -57s-83 -19.5 -133 -19.5c-48.667 0 -91.334 9.5 -128.001 28.5s-67.167 45.167 -91.5 78.5
s-42.666 72.833 -54.999 118.5s-18.5 95.167 -18.5 148.5s6.16699 109.166 18.5 167.499s30.833 115.833 55.5 172.5s55.167 110.667 91.5 162s78.333 96.333 126 135s100.834 69.5 159.501 92.5s122.667 34.5 192 34.5c68.667 0 130.667 -10.5 186 -31.5
s106.666 -52.167 153.999 -93.5c53.333 41.333 113.833 73.166 181.5 95.499s143.167 33.5 226.5 33.5c102.667 0 181.5 -21.167 236.5 -63.5s82.5 -101.5 82.5 -177.5c0 -55.333 -15.333 -108.5 -46 -159.5s-73 -96 -127 -135s-118.333 -70 -193 -93s-156 -34.5 -244 -34.5
h-37.5c-13.667 0 -26.5 0.666992 -38.5 2c-2 -13.333 -3.16699 -26.833 -3.5 -40.5s-0.5 -26.167 -0.5 -37.5c0 -79.333 18.5 -140.5 55.5 -183.5s92.833 -64.5 167.5 -64.5zM393 351.999c0 -39.333 2.83301 -72.333 8.5 -99s13.334 -48.167 23.001 -64.5
s21.334 -28 35.001 -35s28.5 -10.5 44.5 -10.5c24.667 0 50.334 9.33301 77.001 28s52.5 43.5 77.5 74.5s48.5 67 70.5 108s41 84.167 57 129.5c6.66699 35.333 14.667 71.166 24 107.499s20.5 71.833 33.5 106.5s27.667 68.334 44 101.001s35.166 63 56.499 91
c-6.66699 10 -16.5 20.667 -29.5 32s-28 21.833 -45 31.5s-35.333 17.834 -55 24.501s-39.834 10 -60.501 10c-40 0 -76.5 -10.333 -109.5 -31s-62.833 -48.334 -89.5 -83.001s-50.167 -74 -70.5 -118s-37.333 -89.667 -51 -137s-23.834 -94 -30.501 -140s-10 -88 -10 -126z
M1397 998.999c-22 0 -43.501 -5.83496 -64.501 -17.502s-40.833 -27.667 -59.5 -48s-36 -44.166 -52 -71.499s-30.667 -56.666 -44 -87.999s-24.833 -63.666 -34.5 -96.999s-17.167 -66.333 -22.5 -99h19c50.667 0 97.834 7 141.501 21s81.5 33.5 113.5 58.5
s57.167 55.167 75.5 90.5s27.5 74.666 27.5 117.999c0 42 -8.66699 74.667 -26 98s-42 35 -74 35z" />
    <glyph glyph-name="ccedilla" unicode="&#xe7;" horiz-adv-x="1081" 
d="M621 135c36 0 68.499 4.83301 97.499 14.5s55.167 22.5 78.5 38.5s44 34 62 54s34 40.333 48 61c8.66699 -8 16 -19.833 22 -35.5s9 -33.834 9 -54.501c0 -26.667 -7.83301 -53.834 -23.5 -81.501s-40 -52.667 -73 -75s-74.833 -40.666 -125.5 -54.999
s-111 -21.5 -181 -21.5c-62 0 -120.5 8.66699 -175.5 26s-103 43.666 -144 78.999s-73.5 79.333 -97.5 132s-36 114.667 -36 186c0 50.667 6.33301 103.5 19 158.5s31.667 109 57 162s56.833 103.333 94.5 151s81.5 89.5 131.5 125.5s106 64.667 168 86s130 32 204 32
c56.667 0 105.5 -5.83301 146.5 -17.5s74.667 -27.334 101 -47.001s45.833 -42.667 58.5 -69s19 -54.166 19 -83.499c0 -21.333 -4.5 -42.166 -13.5 -62.499s-23.5 -38.666 -43.5 -54.999s-45.833 -29.5 -77.5 -39.5s-70.167 -15 -115.5 -15
c0 36 -3.16699 70.167 -9.5 102.5s-15.833 60.666 -28.5 84.999s-28.167 43.5 -46.5 57.5s-39.833 21 -64.5 21c-29.333 0 -56.833 -9.83301 -82.5 -29.5s-49.167 -45.667 -70.5 -78s-40.166 -69.333 -56.499 -111s-30.333 -84.667 -42 -129s-20.5 -88 -26.5 -131
s-9 -82.167 -9 -117.5c0 -83.333 19 -148.166 57 -194.499s94.333 -69.5 169 -69.5zM486.999 -70c27.333 -3.33301 52.1689 -9.99805 74.502 -19.998s41.5 -22.5 57.5 -37.5s28.333 -32 37 -51s13 -39.5 13 -61.5c0 -44 -10.167 -81.833 -30.5 -113.5
s-47.5 -57.834 -81.5 -78.501s-72.833 -35.834 -116.5 -45.501s-88.834 -14.5 -135.501 -14.5c-21.333 0 -46.5 2.5 -75.5 7.5s-55.167 11.5 -78.5 19.5l27 121c23.333 -5.33301 46.666 -9.33301 69.999 -12s44.333 -4 63 -4c20.667 0 40.334 2 59.001 6
s34.667 10.167 48 18.5s24 19 32 32s12 28.833 12 47.5c0 13.333 -3.5 25.5 -10.5 36.5s-16.5 20.667 -28.5 29s-26.333 14.833 -43 19.5s-34.334 7.66699 -53.001 9l82 180h117z" />
    <glyph glyph-name="egrave" unicode="&#xe8;" horiz-adv-x="1096" 
d="M618 135c33.333 0 65.001 4.83008 95.001 14.4971s57.833 22.334 83.5 38.001s48.667 33.334 69 53.001s37.833 39.834 52.5 60.501c8 -10 14.333 -22.833 19 -38.5s7 -32.167 7 -49.5c0 -24.667 -8 -50.667 -24 -78s-40.5 -52.5 -73.5 -75.5s-75 -42 -126 -57
s-111.5 -22.5 -181.5 -22.5c-62.667 0 -121.667 8.66699 -177 26s-103.833 43.5 -145.5 78.5s-74.5 79 -98.5 132s-36 115.167 -36 186.5c0 50.667 6.66699 103.667 20 159s33.166 109.5 59.499 162.5s59 103.333 98 151s84.167 89.5 135.5 125.5s108.833 64.5 172.5 85.5
s133.167 31.5 208.5 31.5c98 0 174 -21.167 228 -63.5s81 -101.5 81 -177.5c0 -55.333 -15.333 -108.333 -46 -159s-73 -95.167 -127 -133.5s-118.333 -68.833 -193 -91.5s-156 -34 -244 -34h-37c-13.333 0 -26.333 0.666992 -39 2c-2 -13.333 -3.16699 -26.833 -3.5 -40.5
s-0.5 -26.167 -0.5 -37.5c0 -79.333 18.5 -140.5 55.5 -183.5s92.833 -64.5 167.5 -64.5zM690.001 994.997c-33.333 0 -65 -12.499 -95 -37.499s-57 -57.5 -81 -97.5s-44.667 -84.833 -62 -134.5s-30 -98.834 -38 -147.501h18c50.667 0 97.834 6.66699 141.501 20
s81.667 32.5 114 57.5s57.666 54.833 75.999 89.5s27.5 73.667 27.5 117c0 42 -8.83301 74.667 -26.5 98s-42.5 35 -74.5 35zM762.001 1241c-29.333 17.333 -60.498 39.334 -93.498 66.001s-64.833 54.5 -95.5 83.5s-58.834 57.5 -84.501 85.5s-45.5 52 -59.5 72l6 21h301
c8 -24.667 18.5 -51.334 31.5 -80.001s26.5 -56.667 40.5 -84s28.167 -53 42.5 -77s27.166 -44 38.499 -60l-6 -27h-121z" />
    <glyph glyph-name="eacute" unicode="&#xe9;" horiz-adv-x="1096" 
d="M618 135c33.333 0 65.001 4.83008 95.001 14.4971s57.833 22.334 83.5 38.001s48.667 33.334 69 53.001s37.833 39.834 52.5 60.501c8 -10 14.333 -22.833 19 -38.5s7 -32.167 7 -49.5c0 -24.667 -8 -50.667 -24 -78s-40.5 -52.5 -73.5 -75.5s-75 -42 -126 -57
s-111.5 -22.5 -181.5 -22.5c-62.667 0 -121.667 8.66699 -177 26s-103.833 43.5 -145.5 78.5s-74.5 79 -98.5 132s-36 115.167 -36 186.5c0 50.667 6.66699 103.667 20 159s33.166 109.5 59.499 162.5s59 103.333 98 151s84.167 89.5 135.5 125.5s108.833 64.5 172.5 85.5
s133.167 31.5 208.5 31.5c98 0 174 -21.167 228 -63.5s81 -101.5 81 -177.5c0 -55.333 -15.333 -108.333 -46 -159s-73 -95.167 -127 -133.5s-118.333 -68.833 -193 -91.5s-156 -34 -244 -34h-37c-13.333 0 -26.333 0.666992 -39 2c-2 -13.333 -3.16699 -26.833 -3.5 -40.5
s-0.5 -26.167 -0.5 -37.5c0 -79.333 18.5 -140.5 55.5 -183.5s92.833 -64.5 167.5 -64.5zM690.001 994.997c-33.333 0 -65 -12.499 -95 -37.499s-57 -57.5 -81 -97.5s-44.667 -84.833 -62 -134.5s-30 -98.834 -38 -147.501h18c50.667 0 97.834 6.66699 141.501 20
s81.667 32.5 114 57.5s57.666 54.833 75.999 89.5s27.5 73.667 27.5 117c0 42 -8.83301 74.667 -26.5 98s-42.5 35 -74.5 35zM633.001 1268c18.667 19.333 39.002 41.667 61.002 67l65.5 78.5l63 80.5c20.333 26.667 38.5 51.667 54.5 75h321l-6 -21
c-10.667 -12 -25.334 -26.167 -44.001 -42.5s-39.834 -33.833 -63.501 -52.5l-76 -57.5l-82.5 -57.5l-83 -53.5c-27.333 -17 -53 -31.5 -77 -43.5h-139z" />
    <glyph glyph-name="ecircumflex" unicode="&#xea;" horiz-adv-x="1096" 
d="M618 135c33.333 0 65.001 4.83008 95.001 14.4971s57.833 22.334 83.5 38.001s48.667 33.334 69 53.001s37.833 39.834 52.5 60.501c8 -10 14.333 -22.833 19 -38.5s7 -32.167 7 -49.5c0 -24.667 -8 -50.667 -24 -78s-40.5 -52.5 -73.5 -75.5s-75 -42 -126 -57
s-111.5 -22.5 -181.5 -22.5c-62.667 0 -121.667 8.66699 -177 26s-103.833 43.5 -145.5 78.5s-74.5 79 -98.5 132s-36 115.167 -36 186.5c0 50.667 6.66699 103.667 20 159s33.166 109.5 59.499 162.5s59 103.333 98 151s84.167 89.5 135.5 125.5s108.833 64.5 172.5 85.5
s133.167 31.5 208.5 31.5c98 0 174 -21.167 228 -63.5s81 -101.5 81 -177.5c0 -55.333 -15.333 -108.333 -46 -159s-73 -95.167 -127 -133.5s-118.333 -68.833 -193 -91.5s-156 -34 -244 -34h-37c-13.333 0 -26.333 0.666992 -39 2c-2 -13.333 -3.16699 -26.833 -3.5 -40.5
s-0.5 -26.167 -0.5 -37.5c0 -79.333 18.5 -140.5 55.5 -183.5s92.833 -64.5 167.5 -64.5zM690.001 994.997c-33.333 0 -65 -12.499 -95 -37.499s-57 -57.5 -81 -97.5s-44.667 -84.833 -62 -134.5s-30 -98.834 -38 -147.501h18c50.667 0 97.834 6.66699 141.501 20
s81.667 32.5 114 57.5s57.666 54.833 75.999 89.5s27.5 73.667 27.5 117c0 42 -8.83301 74.667 -26.5 98s-42.5 35 -74.5 35zM371.001 1268l68.001 66.5l78 77.5l78 80.5c25.333 27 47.666 52.5 66.999 76.5h276c8.66699 -21.333 19.667 -45.333 33 -72l42.5 -81l44.5 -80
c14.667 -26 28 -48.667 40 -68l-6 -27h-129l-42 40l-49 48l-49.5 50c-16.333 16.667 -30.5 32 -42.5 46l-61 -46l-69 -50l-68 -48l-58 -40h-159z" />
    <glyph glyph-name="edieresis" unicode="&#xeb;" horiz-adv-x="1096" 
d="M618 135c33.333 0 65.001 4.83008 95.001 14.4971s57.833 22.334 83.5 38.001s48.667 33.334 69 53.001s37.833 39.834 52.5 60.501c8 -10 14.333 -22.833 19 -38.5s7 -32.167 7 -49.5c0 -24.667 -8 -50.667 -24 -78s-40.5 -52.5 -73.5 -75.5s-75 -42 -126 -57
s-111.5 -22.5 -181.5 -22.5c-62.667 0 -121.667 8.66699 -177 26s-103.833 43.5 -145.5 78.5s-74.5 79 -98.5 132s-36 115.167 -36 186.5c0 50.667 6.66699 103.667 20 159s33.166 109.5 59.499 162.5s59 103.333 98 151s84.167 89.5 135.5 125.5s108.833 64.5 172.5 85.5
s133.167 31.5 208.5 31.5c98 0 174 -21.167 228 -63.5s81 -101.5 81 -177.5c0 -55.333 -15.333 -108.333 -46 -159s-73 -95.167 -127 -133.5s-118.333 -68.833 -193 -91.5s-156 -34 -244 -34h-37c-13.333 0 -26.333 0.666992 -39 2c-2 -13.333 -3.16699 -26.833 -3.5 -40.5
s-0.5 -26.167 -0.5 -37.5c0 -79.333 18.5 -140.5 55.5 -183.5s92.833 -64.5 167.5 -64.5zM690.001 994.997c-33.333 0 -65 -12.499 -95 -37.499s-57 -57.5 -81 -97.5s-44.667 -84.833 -62 -134.5s-30 -98.834 -38 -147.501h18c50.667 0 97.834 6.66699 141.501 20
s81.667 32.5 114 57.5s57.666 54.833 75.999 89.5s27.5 73.667 27.5 117c0 42 -8.83301 74.667 -26.5 98s-42.5 35 -74.5 35zM634.001 1417c0 -26.667 -3.66699 -49 -11 -67s-16.666 -32.667 -27.999 -44s-24.333 -19.5 -39 -24.5s-29.334 -7.5 -44.001 -7.5
c-34 0 -61.333 9.16699 -82 27.5s-31 46.5 -31 84.5c0 44 11 79 33 105s52 39 90 39c32.667 0 59.5 -9.33301 80.5 -28s31.5 -47 31.5 -85zM1062 1417c0 -26.667 -3.66699 -49 -11 -67s-16.666 -32.667 -27.999 -44s-24.333 -19.5 -39 -24.5s-29.334 -7.5 -44.001 -7.5
c-34 0 -61.333 9.16699 -82 27.5s-31 46.5 -31 84.5c0 44 11 79 33 105s52 39 90 39c32.667 0 59.5 -9.33301 80.5 -28s31.5 -47 31.5 -85z" />
    <glyph glyph-name="igrave" unicode="&#xec;" horiz-adv-x="725" 
d="M621 1098l-141.998 -666c-8 -37.333 -14.667 -72.166 -20 -104.499s-8 -62.833 -8 -91.5c0 -30 6.16699 -53 18.5 -69s29.833 -24 52.5 -24c21.333 0 41 4 59 12s38.667 19.667 62 35l49 -69c-16 -17.333 -34.333 -34.5 -55 -51.5s-44 -32.167 -70 -45.5
s-54.5 -24 -85.5 -32s-65.167 -12 -102.5 -12c-78.667 0 -139 18.5 -181 55.5s-63 88.5 -63 154.5c0 29.333 2.66699 64.333 8 105s13.666 87 24.999 139l80 381c2 8.66699 3.83301 17.667 5.5 27s3.16699 18.166 4.5 26.499s2.33301 15.5 3 21.5s1 10.333 1 13
c0 18.667 -2 33.667 -6 45s-10.333 20 -19 26s-19.834 10 -33.501 12s-30.167 3 -49.5 3h-37l18 109h486zM457.002 1241c-29.333 17.333 -60.498 39.334 -93.498 66.001s-64.833 54.5 -95.5 83.5s-58.834 57.5 -84.501 85.5s-45.5 52 -59.5 72l6 21h301
c8 -24.667 18.5 -51.334 31.5 -80.001s26.5 -56.667 40.5 -84s28.167 -53 42.5 -77s27.166 -44 38.499 -60l-6 -27h-121z" />
    <glyph glyph-name="iacute" unicode="&#xed;" horiz-adv-x="725" 
d="M621 1098l-141.998 -666c-8 -37.333 -14.667 -72.166 -20 -104.499s-8 -62.833 -8 -91.5c0 -30 6.16699 -53 18.5 -69s29.833 -24 52.5 -24c21.333 0 41 4 59 12s38.667 19.667 62 35l49 -69c-16 -17.333 -34.333 -34.5 -55 -51.5s-44 -32.167 -70 -45.5
s-54.5 -24 -85.5 -32s-65.167 -12 -102.5 -12c-78.667 0 -139 18.5 -181 55.5s-63 88.5 -63 154.5c0 29.333 2.66699 64.333 8 105s13.666 87 24.999 139l80 381c2 8.66699 3.83301 17.667 5.5 27s3.16699 18.166 4.5 26.499s2.33301 15.5 3 21.5s1 10.333 1 13
c0 18.667 -2 33.667 -6 45s-10.333 20 -19 26s-19.834 10 -33.501 12s-30.167 3 -49.5 3h-37l18 109h486zM345.002 1268c18.667 19.333 39.002 41.667 61.002 67l65.5 78.5l63 80.5c20.333 26.667 38.5 51.667 54.5 75h321l-6 -21
c-10.667 -12 -25.334 -26.167 -44.001 -42.5s-39.834 -33.833 -63.501 -52.5l-76 -57.5l-82.5 -57.5l-83 -53.5c-27.333 -17 -53 -31.5 -77 -43.5h-139z" />
    <glyph glyph-name="icircumflex" unicode="&#xee;" horiz-adv-x="725" 
d="M621 1098l-141.998 -666c-8 -37.333 -14.667 -72.166 -20 -104.499s-8 -62.833 -8 -91.5c0 -30 6.16699 -53 18.5 -69s29.833 -24 52.5 -24c21.333 0 41 4 59 12s38.667 19.667 62 35l49 -69c-16 -17.333 -34.333 -34.5 -55 -51.5s-44 -32.167 -70 -45.5
s-54.5 -24 -85.5 -32s-65.167 -12 -102.5 -12c-78.667 0 -139 18.5 -181 55.5s-63 88.5 -63 154.5c0 29.333 2.66699 64.333 8 105s13.666 87 24.999 139l80 381c2 8.66699 3.83301 17.667 5.5 27s3.16699 18.166 4.5 26.499s2.33301 15.5 3 21.5s1 10.333 1 13
c0 18.667 -2 33.667 -6 45s-10.333 20 -19 26s-19.834 10 -33.501 12s-30.167 3 -49.5 3h-37l18 109h486zM69.002 1268l68.001 66.5l78 77.5l78 80.5c25.333 27 47.666 52.5 66.999 76.5h276c8.66699 -21.333 19.667 -45.333 33 -72l42.5 -81l44.5 -80
c14.667 -26 28 -48.667 40 -68l-6 -27h-129l-42 40l-49 48l-49.5 50c-16.333 16.667 -30.5 32 -42.5 46l-61 -46l-69 -50l-68 -48l-58 -40h-159z" />
    <glyph glyph-name="idieresis" unicode="&#xef;" horiz-adv-x="725" 
d="M621 1098l-141.998 -666c-8 -37.333 -14.667 -72.166 -20 -104.499s-8 -62.833 -8 -91.5c0 -30 6.16699 -53 18.5 -69s29.833 -24 52.5 -24c21.333 0 41 4 59 12s38.667 19.667 62 35l49 -69c-16 -17.333 -34.333 -34.5 -55 -51.5s-44 -32.167 -70 -45.5
s-54.5 -24 -85.5 -32s-65.167 -12 -102.5 -12c-78.667 0 -139 18.5 -181 55.5s-63 88.5 -63 154.5c0 29.333 2.66699 64.333 8 105s13.666 87 24.999 139l80 381c2 8.66699 3.83301 17.667 5.5 27s3.16699 18.166 4.5 26.499s2.33301 15.5 3 21.5s1 10.333 1 13
c0 18.667 -2 33.667 -6 45s-10.333 20 -19 26s-19.834 10 -33.501 12s-30.167 3 -49.5 3h-37l18 109h486zM355.002 1417c0 -26.667 -3.66699 -49 -11 -67s-16.666 -32.667 -27.999 -44s-24.333 -19.5 -39 -24.5s-29.334 -7.5 -44.001 -7.5c-34 0 -61.333 9.16699 -82 27.5
s-31 46.5 -31 84.5c0 44 11 79 33 105s52 39 90 39c32.667 0 59.5 -9.33301 80.5 -28s31.5 -47 31.5 -85zM783.002 1417c0 -26.667 -3.66699 -49 -11 -67s-16.666 -32.667 -27.999 -44s-24.333 -19.5 -39 -24.5s-29.334 -7.5 -44.001 -7.5c-34 0 -61.333 9.16699 -82 27.5
s-31 46.5 -31 84.5c0 44 11 79 33 105s52 39 90 39c32.667 0 59.5 -9.33301 80.5 -28s31.5 -47 31.5 -85z" />
    <glyph glyph-name="eth" unicode="&#xf0;" horiz-adv-x="1260" 
d="M82 410c0 42 5.50098 87.002 16.501 135.002s27.5 95.667 49.5 143s49.667 93 83 137s72.666 82.667 117.999 116s96.5 60 153.5 80s120.167 30 189.5 30c34 0 66.833 -5 98.5 -15s58.167 -23.667 79.5 -41c-9.33301 54 -24.833 102.667 -46.5 146s-49.167 83 -82.5 119
l-321 -150l29 143l194 90c-32 23.333 -66 43.166 -102 59.499s-73.667 30.833 -113 43.5l39 125c60.667 -14.667 119.834 -34.334 177.501 -59.001s112.5 -55 164.5 -91l305 140l-31 -146l-170 -78c39.333 -37.333 75.333 -78 108 -122s60.667 -92.167 84 -144.5
s41.333 -109.166 54 -170.499s19 -128 19 -200c0 -59.333 -5.83301 -118.333 -17.5 -177s-29.334 -114.667 -53.001 -168s-53.5 -102.833 -89.5 -148.5s-78.667 -85.334 -128 -119.001s-105.5 -60 -168.5 -79s-132.833 -28.5 -209.5 -28.5
c-63.333 0 -121.333 8.83301 -174 26.5s-98 44.167 -136 79.5s-67.5 80 -88.5 134s-31.5 117.333 -31.5 190zM393.001 393.002c0 -46 3.83496 -85.168 11.502 -117.501s18.667 -58.5 33 -78.5s31.833 -34.667 52.5 -44s43.667 -14 69 -14c36.667 0 69.667 8.5 99 25.5
s55.333 39.667 78 68s42.167 60.833 58.5 97.5s29.666 74.667 39.999 114s17.833 78.5 22.5 117.5s7 75.167 7 108.5c0 83.333 -14.167 144 -42.5 182s-68.833 57 -121.5 57c-37.333 0 -70.833 -8.5 -100.5 -25.5s-55.834 -39.667 -78.501 -68s-42 -60.5 -58 -96.5
s-29.167 -73.167 -39.5 -111.5s-18 -76.166 -23 -113.499s-7.5 -71 -7.5 -101z" />
    <glyph glyph-name="ntilde" unicode="&#xf1;" horiz-adv-x="1376" 
d="M800 190c0 58.667 10.999 140.001 32.999 244.001l33 162l10 49l12 60.5c4 21 7.5 42 10.5 63s4.5 39.833 4.5 56.5c0 12.667 -1.16699 26 -3.5 40s-6.66602 26.667 -12.999 38s-15 20.666 -26 27.999s-25.5 11 -43.5 11c-23.333 0 -46.5 -7.83301 -69.5 -23.5
s-45.167 -36.334 -66.5 -62.001s-41.666 -55 -60.999 -88s-36.833 -66.833 -52.5 -101.5s-29.167 -68.667 -40.5 -102s-20 -63.333 -26 -90l-104 -475h-307l172 815c2 8.66699 3.83301 17.667 5.5 27s3.16699 18.166 4.5 26.499s2.33301 15.5 3 21.5s1 10.333 1 13
c0 18.667 -2 33.667 -6 45s-10.333 20 -19 26s-19.834 10 -33.501 12s-30.167 3 -49.5 3h-37l18 109h455l-23 -219h13c26 40.667 52.833 76 80.5 106s57.5 54.833 89.5 74.5s66.833 34.334 104.5 44.001s79.167 14.5 124.5 14.5c43.333 0 79.833 -6.33301 109.5 -19
s53.667 -29.834 72 -51.501s31.5 -46.667 39.5 -75s12 -58.166 12 -89.499c0 -17.333 -1.16699 -35.833 -3.5 -55.5s-5.33301 -39.5 -9 -59.5s-7.66699 -40 -12 -60s-8.16602 -39 -11.499 -57l-46 -219c-8 -37.333 -14.667 -72.166 -20 -104.499s-8 -62.833 -8 -91.5
c0 -30 6.16699 -53 18.5 -69s30.166 -24 53.499 -24c21.333 0 40.833 4 58.5 12s38.167 19.667 61.5 35l49 -69c-16 -17.333 -34.333 -34.5 -55 -51.5s-43.834 -32.167 -69.501 -45.5s-54.167 -24 -85.5 -32s-65.666 -12 -102.999 -12c-78.667 0 -139 18.5 -181 55.5
s-63 88.5 -63 154.5zM994.999 1436c17.333 0 32.335 3.00098 45.002 9.00098s23.5 14 32.5 24s16.333 21.5 22 34.5s10.167 26.5 13.5 40.5h123c-7.33301 -32.667 -18.5 -66.834 -33.5 -102.501s-33.667 -68.334 -56 -98.001s-48.333 -54.167 -78 -73.5
s-62.834 -29 -99.501 -29s-69.667 6.66699 -99 20s-56.333 28.166 -81 44.499l-69.5 44.5c-21.667 13.333 -43.5 20 -65.5 20c-14 0 -27.333 -3 -40 -9s-24 -14 -34 -24s-18.333 -21.5 -25 -34.5s-11.334 -26.5 -14.001 -40.5h-122c6 30.667 16.833 63.834 32.5 99.501
s35.5 68.5 59.5 98.5s51.5 55 82.5 75s64.833 30 101.5 30c36 0 68.167 -6.66699 96.5 -20s54.333 -28.166 78 -44.499l67 -44.5c21 -13.333 42.167 -20 63.5 -20z" />
    <glyph glyph-name="ograve" unicode="&#xf2;" horiz-adv-x="1266" 
d="M82 410c0 51.333 5.99707 104.331 17.9971 158.998s30.167 108.334 54.5 161.001s54.833 102.5 91.5 149.5s79.834 88.167 129.501 123.5s106 63.333 169 84s132.833 31 209.5 31c58.667 0 114 -8.16699 166 -24.5s97.333 -41.833 136 -76.5
s69.334 -79.167 92.001 -133.5s34 -119.5 34 -195.5c0 -49.333 -5.66699 -101 -17 -155s-28.833 -107.167 -52.5 -159.5s-53.667 -102.333 -90 -150s-79.166 -89.5 -128.499 -125.5s-105.333 -64.667 -168 -86s-132.667 -32 -210 -32c-64 0 -122.667 8.83301 -176 26.5
s-99 44.334 -137 80.001s-67.667 80.5 -89 134.5s-32 117 -32 189zM552.997 126.998c36.667 0 69.832 10.5 99.499 31.5s56.334 48.667 80.001 83s44.167 73.5 61.5 117.5s31.5 89.333 42.5 136s19.333 92.5 25 137.5s8.5 85.5 8.5 121.5
c0 80.667 -13.833 138.667 -41.5 174s-65.5 53 -113.5 53c-34.667 0 -66.667 -10 -96 -30s-55.833 -46.667 -79.5 -80s-44.5 -71.5 -62.5 -114.5s-33.167 -87.5 -45.5 -133.5s-21.5 -91.833 -27.5 -137.5s-9 -87.5 -9 -125.5c0 -83.333 14 -143 42 -179s66.667 -54 116 -54z
M757.995 1241c-29.333 17.333 -60.498 39.334 -93.498 66.001s-64.833 54.5 -95.5 83.5s-58.834 57.5 -84.501 85.5s-45.5 52 -59.5 72l6 21h301c8 -24.667 18.5 -51.334 31.5 -80.001s26.5 -56.667 40.5 -84s28.167 -53 42.5 -77s27.166 -44 38.499 -60l-6 -27h-121z" />
    <glyph glyph-name="oacute" unicode="&#xf3;" horiz-adv-x="1266" 
d="M82 410c0 51.333 5.99707 104.331 17.9971 158.998s30.167 108.334 54.5 161.001s54.833 102.5 91.5 149.5s79.834 88.167 129.501 123.5s106 63.333 169 84s132.833 31 209.5 31c58.667 0 114 -8.16699 166 -24.5s97.333 -41.833 136 -76.5
s69.334 -79.167 92.001 -133.5s34 -119.5 34 -195.5c0 -49.333 -5.66699 -101 -17 -155s-28.833 -107.167 -52.5 -159.5s-53.667 -102.333 -90 -150s-79.166 -89.5 -128.499 -125.5s-105.333 -64.667 -168 -86s-132.667 -32 -210 -32c-64 0 -122.667 8.83301 -176 26.5
s-99 44.334 -137 80.001s-67.667 80.5 -89 134.5s-32 117 -32 189zM552.997 126.998c36.667 0 69.832 10.5 99.499 31.5s56.334 48.667 80.001 83s44.167 73.5 61.5 117.5s31.5 89.333 42.5 136s19.333 92.5 25 137.5s8.5 85.5 8.5 121.5
c0 80.667 -13.833 138.667 -41.5 174s-65.5 53 -113.5 53c-34.667 0 -66.667 -10 -96 -30s-55.833 -46.667 -79.5 -80s-44.5 -71.5 -62.5 -114.5s-33.167 -87.5 -45.5 -133.5s-21.5 -91.833 -27.5 -137.5s-9 -87.5 -9 -125.5c0 -83.333 14 -143 42 -179s66.667 -54 116 -54z
M673.995 1268c18.667 19.333 39.002 41.667 61.002 67l65.5 78.5l63 80.5c20.333 26.667 38.5 51.667 54.5 75h321l-6 -21c-10.667 -12 -25.334 -26.167 -44.001 -42.5s-39.834 -33.833 -63.501 -52.5l-76 -57.5l-82.5 -57.5l-83 -53.5c-27.333 -17 -53 -31.5 -77 -43.5
h-139z" />
    <glyph glyph-name="ocircumflex" unicode="&#xf4;" horiz-adv-x="1266" 
d="M82 410c0 51.333 5.99707 104.331 17.9971 158.998s30.167 108.334 54.5 161.001s54.833 102.5 91.5 149.5s79.834 88.167 129.501 123.5s106 63.333 169 84s132.833 31 209.5 31c58.667 0 114 -8.16699 166 -24.5s97.333 -41.833 136 -76.5
s69.334 -79.167 92.001 -133.5s34 -119.5 34 -195.5c0 -49.333 -5.66699 -101 -17 -155s-28.833 -107.167 -52.5 -159.5s-53.667 -102.333 -90 -150s-79.166 -89.5 -128.499 -125.5s-105.333 -64.667 -168 -86s-132.667 -32 -210 -32c-64 0 -122.667 8.83301 -176 26.5
s-99 44.334 -137 80.001s-67.667 80.5 -89 134.5s-32 117 -32 189zM552.997 126.998c36.667 0 69.832 10.5 99.499 31.5s56.334 48.667 80.001 83s44.167 73.5 61.5 117.5s31.5 89.333 42.5 136s19.333 92.5 25 137.5s8.5 85.5 8.5 121.5
c0 80.667 -13.833 138.667 -41.5 174s-65.5 53 -113.5 53c-34.667 0 -66.667 -10 -96 -30s-55.833 -46.667 -79.5 -80s-44.5 -71.5 -62.5 -114.5s-33.167 -87.5 -45.5 -133.5s-21.5 -91.833 -27.5 -137.5s-9 -87.5 -9 -125.5c0 -83.333 14 -143 42 -179s66.667 -54 116 -54z
M407.995 1268l68.001 66.5l78 77.5l78 80.5c25.333 27 47.666 52.5 66.999 76.5h276c8.66699 -21.333 19.667 -45.333 33 -72l42.5 -81l44.5 -80c14.667 -26 28 -48.667 40 -68l-6 -27h-129l-42 40l-49 48l-49.5 50c-16.333 16.667 -30.5 32 -42.5 46l-61 -46l-69 -50
l-68 -48l-58 -40h-159z" />
    <glyph glyph-name="otilde" unicode="&#xf5;" horiz-adv-x="1266" 
d="M82 410c0 51.333 5.99707 104.331 17.9971 158.998s30.167 108.334 54.5 161.001s54.833 102.5 91.5 149.5s79.834 88.167 129.501 123.5s106 63.333 169 84s132.833 31 209.5 31c58.667 0 114 -8.16699 166 -24.5s97.333 -41.833 136 -76.5
s69.334 -79.167 92.001 -133.5s34 -119.5 34 -195.5c0 -49.333 -5.66699 -101 -17 -155s-28.833 -107.167 -52.5 -159.5s-53.667 -102.333 -90 -150s-79.166 -89.5 -128.499 -125.5s-105.333 -64.667 -168 -86s-132.667 -32 -210 -32c-64 0 -122.667 8.83301 -176 26.5
s-99 44.334 -137 80.001s-67.667 80.5 -89 134.5s-32 117 -32 189zM552.997 126.998c36.667 0 69.832 10.5 99.499 31.5s56.334 48.667 80.001 83s44.167 73.5 61.5 117.5s31.5 89.333 42.5 136s19.333 92.5 25 137.5s8.5 85.5 8.5 121.5
c0 80.667 -13.833 138.667 -41.5 174s-65.5 53 -113.5 53c-34.667 0 -66.667 -10 -96 -30s-55.833 -46.667 -79.5 -80s-44.5 -71.5 -62.5 -114.5s-33.167 -87.5 -45.5 -133.5s-21.5 -91.833 -27.5 -137.5s-9 -87.5 -9 -125.5c0 -83.333 14 -143 42 -179s66.667 -54 116 -54z
M957.995 1436c17.333 0 32.335 3.00098 45.002 9.00098s23.5 14 32.5 24s16.333 21.5 22 34.5s10.167 26.5 13.5 40.5h123c-7.33301 -32.667 -18.5 -66.834 -33.5 -102.501s-33.667 -68.334 -56 -98.001s-48.333 -54.167 -78 -73.5s-62.834 -29 -99.501 -29
s-69.667 6.66699 -99 20s-56.333 28.166 -81 44.499l-69.5 44.5c-21.667 13.333 -43.5 20 -65.5 20c-14 0 -27.333 -3 -40 -9s-24 -14 -34 -24s-18.333 -21.5 -25 -34.5s-11.334 -26.5 -14.001 -40.5h-122c6 30.667 16.833 63.834 32.5 99.501s35.5 68.5 59.5 98.5
s51.5 55 82.5 75s64.833 30 101.5 30c36 0 68.167 -6.66699 96.5 -20s54.333 -28.166 78 -44.499l67 -44.5c21 -13.333 42.167 -20 63.5 -20z" />
    <glyph glyph-name="odieresis" unicode="&#xf6;" horiz-adv-x="1266" 
d="M82 410c0 51.333 5.99707 104.331 17.9971 158.998s30.167 108.334 54.5 161.001s54.833 102.5 91.5 149.5s79.834 88.167 129.501 123.5s106 63.333 169 84s132.833 31 209.5 31c58.667 0 114 -8.16699 166 -24.5s97.333 -41.833 136 -76.5
s69.334 -79.167 92.001 -133.5s34 -119.5 34 -195.5c0 -49.333 -5.66699 -101 -17 -155s-28.833 -107.167 -52.5 -159.5s-53.667 -102.333 -90 -150s-79.166 -89.5 -128.499 -125.5s-105.333 -64.667 -168 -86s-132.667 -32 -210 -32c-64 0 -122.667 8.83301 -176 26.5
s-99 44.334 -137 80.001s-67.667 80.5 -89 134.5s-32 117 -32 189zM552.997 126.998c36.667 0 69.832 10.5 99.499 31.5s56.334 48.667 80.001 83s44.167 73.5 61.5 117.5s31.5 89.333 42.5 136s19.333 92.5 25 137.5s8.5 85.5 8.5 121.5
c0 80.667 -13.833 138.667 -41.5 174s-65.5 53 -113.5 53c-34.667 0 -66.667 -10 -96 -30s-55.833 -46.667 -79.5 -80s-44.5 -71.5 -62.5 -114.5s-33.167 -87.5 -45.5 -133.5s-21.5 -91.833 -27.5 -137.5s-9 -87.5 -9 -125.5c0 -83.333 14 -143 42 -179s66.667 -54 116 -54z
M689.995 1417c0 -26.667 -3.66699 -49 -11 -67s-16.666 -32.667 -27.999 -44s-24.333 -19.5 -39 -24.5s-29.334 -7.5 -44.001 -7.5c-34 0 -61.333 9.16699 -82 27.5s-31 46.5 -31 84.5c0 44 11 79 33 105s52 39 90 39c32.667 0 59.5 -9.33301 80.5 -28s31.5 -47 31.5 -85z
M1118 1417c0 -26.667 -3.66699 -49 -11 -67s-16.666 -32.667 -27.999 -44s-24.333 -19.5 -39 -24.5s-29.334 -7.5 -44.001 -7.5c-34 0 -61.333 9.16699 -82 27.5s-31 46.5 -31 84.5c0 44 11 79 33 105s52 39 90 39c32.667 0 59.5 -9.33301 80.5 -28s31.5 -47 31.5 -85z" />
    <glyph glyph-name="divide" unicode="&#xf7;" 
d="M492 1120c0 46.667 10.833 79.167 32.5 97.5s48.834 27.5 81.501 27.5c16 0 31 -2.16699 45 -6.5s26.167 -11.333 36.5 -21s18.5 -22.5 24.5 -38.5s9 -35.667 9 -59s-3 -42.833 -9 -58.5s-14.167 -28.5 -24.5 -38.5s-22.5 -17.167 -36.5 -21.5s-29 -6.5 -45 -6.5
c-32.667 0 -59.834 9.33301 -81.501 28s-32.5 51 -32.5 97zM492 344c0 46.667 10.833 79.167 32.5 97.5s48.834 27.5 81.501 27.5c16 0 31 -2.16699 45 -6.5s26.167 -11.333 36.5 -21s18.5 -22.5 24.5 -38.5s9 -35.667 9 -59s-3 -42.833 -9 -58.5s-14.167 -28.5 -24.5 -38.5
s-22.5 -17.167 -36.5 -21.5s-29 -6.5 -45 -6.5c-32.667 0 -59.834 9.33301 -81.501 28s-32.5 51 -32.5 97zM1044 659h-878v146h878v-146z" />
    <glyph glyph-name="oslash" unicode="&#xf8;" horiz-adv-x="1266" 
d="M82 410c0 51.333 5.99805 104.333 17.998 159s30.167 108.334 54.5 161.001s54.833 102.5 91.5 149.5s79.834 88.167 129.501 123.5s106 63.333 169 84s132.833 31 209.5 31c40 0 78.167 -3.66699 114.5 -11s70.5 -18.666 102.5 -33.999l92 107h154l-146 -179
c34 -34.667 61 -77.834 81 -129.501s30 -112.834 30 -183.501c0 -49.333 -5.66699 -101 -17 -155s-28.833 -107.167 -52.5 -159.5s-53.667 -102.333 -90 -150s-79.166 -89.5 -128.499 -125.5s-105.333 -64.667 -168 -86s-132.667 -32 -210 -32
c-91.333 0 -171.333 17.667 -240 53l-94 -115h-155l153 188c-32 36 -56.333 79.167 -73 129.5s-25 108.5 -25 174.5zM552.998 127c36.667 0 69.833 10.5 99.5 31.5s56.334 48.667 80.001 83s44.167 73.5 61.5 117.5s31.5 89.333 42.5 136s19.333 92.5 25 137.5
s8.5 85.5 8.5 121.5v4l-450 -549c13.333 -28.667 31.166 -49.5 53.499 -62.5s48.833 -19.5 79.5 -19.5zM714.997 981c-34.667 0 -66.5 -9.83496 -95.5 -29.502s-55.333 -45.667 -79 -78s-44.5 -69.666 -62.5 -111.999s-33 -86.166 -45 -131.499s-21.333 -90.5 -28 -135.5
s-10 -86.833 -10 -125.5l443 542c-13.333 23.333 -30.5 40.833 -51.5 52.5s-44.833 17.5 -71.5 17.5z" />
    <glyph glyph-name="ugrave" unicode="&#xf9;" horiz-adv-x="1378" 
d="M793 176c0 6 0.334961 12.9971 1.00195 20.9971s1.5 16.333 2.5 25s2 16.834 3 24.501s2.16699 14.167 3.5 19.5h-17c-30 -42.667 -59.5 -81.334 -88.5 -116.001s-59.833 -64.5 -92.5 -89.5s-68 -44.333 -106 -58s-81.333 -20.5 -130 -20.5c-44 0 -81 6.16699 -111 18.5
s-54 28.833 -72 49.5s-31 44.834 -39 72.501s-12 56.5 -12 86.5c0 34 4 71.333 12 112l23 113l74 361c5.33301 28 9.66602 53.333 12.999 76s5 39.667 5 51c0 27.333 -8.33301 45.333 -25 54s-44.334 13 -83.001 13h-37l18 109h492l-135 -613c-4 -16 -8 -34 -12 -54
s-7.66699 -40 -11 -60s-6.16602 -39 -8.49902 -57s-3.5 -33.333 -3.5 -46c0 -30 6.33301 -53.833 19 -71.5s35.667 -26.5 69 -26.5c30 0 60.833 13.5 92.5 40.5s62 62 91 105s54.833 91 77.5 144s40 105.167 52 156.5l109 482h305l-139 -666
c-8.66699 -37.333 -15.667 -72.166 -21 -104.499s-8 -62.833 -8 -91.5c0 -30 6.16699 -53 18.5 -69s30.166 -24 53.499 -24c21.333 0 40.833 4 58.5 12s38.167 19.667 61.5 35l50 -69c-16.667 -17.333 -35.334 -34.5 -56.001 -51.5s-43.834 -32.167 -69.501 -45.5
s-54.167 -24 -85.5 -32s-65.666 -12 -102.999 -12c-45.333 0 -83.166 5.16699 -113.499 15.5s-54.833 24.333 -73.5 42s-32 38.334 -40 62.001s-12 49.167 -12 76.5zM752.002 1241c-29.333 17.333 -60.498 39.334 -93.498 66.001s-64.833 54.5 -95.5 83.5
s-58.834 57.5 -84.501 85.5s-45.5 52 -59.5 72l6 21h301c8 -24.667 18.5 -51.334 31.5 -80.001s26.5 -56.667 40.5 -84s28.167 -53 42.5 -77s27.166 -44 38.499 -60l-6 -27h-121z" />
    <glyph glyph-name="uacute" unicode="&#xfa;" horiz-adv-x="1378" 
d="M793 176c0 6 0.334961 12.9971 1.00195 20.9971s1.5 16.333 2.5 25s2 16.834 3 24.501s2.16699 14.167 3.5 19.5h-17c-30 -42.667 -59.5 -81.334 -88.5 -116.001s-59.833 -64.5 -92.5 -89.5s-68 -44.333 -106 -58s-81.333 -20.5 -130 -20.5c-44 0 -81 6.16699 -111 18.5
s-54 28.833 -72 49.5s-31 44.834 -39 72.501s-12 56.5 -12 86.5c0 34 4 71.333 12 112l23 113l74 361c5.33301 28 9.66602 53.333 12.999 76s5 39.667 5 51c0 27.333 -8.33301 45.333 -25 54s-44.334 13 -83.001 13h-37l18 109h492l-135 -613c-4 -16 -8 -34 -12 -54
s-7.66699 -40 -11 -60s-6.16602 -39 -8.49902 -57s-3.5 -33.333 -3.5 -46c0 -30 6.33301 -53.833 19 -71.5s35.667 -26.5 69 -26.5c30 0 60.833 13.5 92.5 40.5s62 62 91 105s54.833 91 77.5 144s40 105.167 52 156.5l109 482h305l-139 -666
c-8.66699 -37.333 -15.667 -72.166 -21 -104.499s-8 -62.833 -8 -91.5c0 -30 6.16699 -53 18.5 -69s30.166 -24 53.499 -24c21.333 0 40.833 4 58.5 12s38.167 19.667 61.5 35l50 -69c-16.667 -17.333 -35.334 -34.5 -56.001 -51.5s-43.834 -32.167 -69.501 -45.5
s-54.167 -24 -85.5 -32s-65.666 -12 -102.999 -12c-45.333 0 -83.166 5.16699 -113.499 15.5s-54.833 24.333 -73.5 42s-32 38.334 -40 62.001s-12 49.167 -12 76.5zM688.002 1268c18.667 19.333 39.002 41.667 61.002 67l65.5 78.5l63 80.5
c20.333 26.667 38.5 51.667 54.5 75h321l-6 -21c-10.667 -12 -25.334 -26.167 -44.001 -42.5s-39.834 -33.833 -63.501 -52.5l-76 -57.5l-82.5 -57.5l-83 -53.5c-27.333 -17 -53 -31.5 -77 -43.5h-139z" />
    <glyph glyph-name="ucircumflex" unicode="&#xfb;" horiz-adv-x="1378" 
d="M793 176c0 6 0.334961 12.9971 1.00195 20.9971s1.5 16.333 2.5 25s2 16.834 3 24.501s2.16699 14.167 3.5 19.5h-17c-30 -42.667 -59.5 -81.334 -88.5 -116.001s-59.833 -64.5 -92.5 -89.5s-68 -44.333 -106 -58s-81.333 -20.5 -130 -20.5c-44 0 -81 6.16699 -111 18.5
s-54 28.833 -72 49.5s-31 44.834 -39 72.501s-12 56.5 -12 86.5c0 34 4 71.333 12 112l23 113l74 361c5.33301 28 9.66602 53.333 12.999 76s5 39.667 5 51c0 27.333 -8.33301 45.333 -25 54s-44.334 13 -83.001 13h-37l18 109h492l-135 -613c-4 -16 -8 -34 -12 -54
s-7.66699 -40 -11 -60s-6.16602 -39 -8.49902 -57s-3.5 -33.333 -3.5 -46c0 -30 6.33301 -53.833 19 -71.5s35.667 -26.5 69 -26.5c30 0 60.833 13.5 92.5 40.5s62 62 91 105s54.833 91 77.5 144s40 105.167 52 156.5l109 482h305l-139 -666
c-8.66699 -37.333 -15.667 -72.166 -21 -104.499s-8 -62.833 -8 -91.5c0 -30 6.16699 -53 18.5 -69s30.166 -24 53.499 -24c21.333 0 40.833 4 58.5 12s38.167 19.667 61.5 35l50 -69c-16.667 -17.333 -35.334 -34.5 -56.001 -51.5s-43.834 -32.167 -69.501 -45.5
s-54.167 -24 -85.5 -32s-65.666 -12 -102.999 -12c-45.333 0 -83.166 5.16699 -113.499 15.5s-54.833 24.333 -73.5 42s-32 38.334 -40 62.001s-12 49.167 -12 76.5zM451.002 1268l68.001 66.5l78 77.5l78 80.5c25.333 27 47.666 52.5 66.999 76.5h276
c8.66699 -21.333 19.667 -45.333 33 -72l42.5 -81l44.5 -80c14.667 -26 28 -48.667 40 -68l-6 -27h-129l-42 40l-49 48l-49.5 50c-16.333 16.667 -30.5 32 -42.5 46l-61 -46l-69 -50l-68 -48l-58 -40h-159z" />
    <glyph glyph-name="udieresis" unicode="&#xfc;" horiz-adv-x="1378" 
d="M793 176c0 6 0.334961 12.9971 1.00195 20.9971s1.5 16.333 2.5 25s2 16.834 3 24.501s2.16699 14.167 3.5 19.5h-17c-30 -42.667 -59.5 -81.334 -88.5 -116.001s-59.833 -64.5 -92.5 -89.5s-68 -44.333 -106 -58s-81.333 -20.5 -130 -20.5c-44 0 -81 6.16699 -111 18.5
s-54 28.833 -72 49.5s-31 44.834 -39 72.501s-12 56.5 -12 86.5c0 34 4 71.333 12 112l23 113l74 361c5.33301 28 9.66602 53.333 12.999 76s5 39.667 5 51c0 27.333 -8.33301 45.333 -25 54s-44.334 13 -83.001 13h-37l18 109h492l-135 -613c-4 -16 -8 -34 -12 -54
s-7.66699 -40 -11 -60s-6.16602 -39 -8.49902 -57s-3.5 -33.333 -3.5 -46c0 -30 6.33301 -53.833 19 -71.5s35.667 -26.5 69 -26.5c30 0 60.833 13.5 92.5 40.5s62 62 91 105s54.833 91 77.5 144s40 105.167 52 156.5l109 482h305l-139 -666
c-8.66699 -37.333 -15.667 -72.166 -21 -104.499s-8 -62.833 -8 -91.5c0 -30 6.16699 -53 18.5 -69s30.166 -24 53.499 -24c21.333 0 40.833 4 58.5 12s38.167 19.667 61.5 35l50 -69c-16.667 -17.333 -35.334 -34.5 -56.001 -51.5s-43.834 -32.167 -69.501 -45.5
s-54.167 -24 -85.5 -32s-65.666 -12 -102.999 -12c-45.333 0 -83.166 5.16699 -113.499 15.5s-54.833 24.333 -73.5 42s-32 38.334 -40 62.001s-12 49.167 -12 76.5zM731.002 1417c0 -26.667 -3.66699 -49 -11 -67s-16.666 -32.667 -27.999 -44s-24.333 -19.5 -39 -24.5
s-29.334 -7.5 -44.001 -7.5c-34 0 -61.333 9.16699 -82 27.5s-31 46.5 -31 84.5c0 44 11 79 33 105s52 39 90 39c32.667 0 59.5 -9.33301 80.5 -28s31.5 -47 31.5 -85zM1159 1417c0 -26.667 -3.66699 -49 -11 -67s-16.666 -32.667 -27.999 -44s-24.333 -19.5 -39 -24.5
s-29.334 -7.5 -44.001 -7.5c-34 0 -61.333 9.16699 -82 27.5s-31 46.5 -31 84.5c0 44 11 79 33 105s52 39 90 39c32.667 0 59.5 -9.33301 80.5 -28s31.5 -47 31.5 -85z" />
    </font>
</defs>
</svg>
