<?xml version="1.0" standalone="no"?>
<!DOCTYPE svg PUBLIC "-//W3C//DTD SVG 1.1//EN" "http://www.w3.org/Graphics/SVG/1.1/DTD/svg11.dtd" >
<svg>
<metadata>
Created by FontForge 20090914 at Wed Aug  1 21:19:00 2012
 By www-data
Digitized data copyright &#194;&#169; 2007, Google Corporation.
</metadata>
<defs>
<font id="DroidSerif" horiz-adv-x="1145" >
  <font-face 
    font-family="Droid Serif"
    font-weight="400"
    font-stretch="normal"
    units-per-em="2048"
    panose-1="2 2 6 0 6 5 0 2 2 0"
    ascent="1638"
    descent="-410"
    x-height="1098"
    cap-height="1462"
    bbox="-369 -492.008 2126 1907.01"
    underline-thickness="102"
    underline-position="-103"
    unicode-range="U+0020-U+2044"
  />
<missing-glyph horiz-adv-x="2048" 
 />
    <glyph glyph-name=".notdef" horiz-adv-x="2048" 
 />
    <glyph glyph-name="space" unicode=" " horiz-adv-x="532" 
 />
    <glyph glyph-name="exclam" unicode="!" horiz-adv-x="682" 
d="M221 1462h238l-72 -1050h-94zM211 125c0 26.667 3.33301 48.834 10 66.501s15.834 31.834 27.501 42.501s25.334 18.334 41.001 23.001s32.5 7 50.5 7c17.333 0 33.833 -2.33301 49.5 -7s29.334 -12.334 41.001 -23.001s21 -24.834 28 -42.501s10.5 -39.834 10.5 -66.501
c0 -26 -3.5 -48 -10.5 -66s-16.333 -32.333 -28 -43s-25.334 -18.334 -41.001 -23.001s-32.167 -7 -49.5 -7c-18 0 -34.833 2.33301 -50.5 7s-29.334 12.334 -41.001 23.001s-20.834 25 -27.501 43s-10 40 -10 66z" />
    <glyph glyph-name="quotedbl" unicode="&#x22;" horiz-adv-x="836" 
d="M502 1462h217l-62 -481h-94zM117 1462h217l-62 -481h-94z" />
    <glyph glyph-name="numbersign" unicode="#" 
d="M397 537h285l76 401h-285zM1038 537v-121h-258l-78 -416h-122l77 416h-284l-78 -416h-123l78 416h-168v121h190l78 401h-244v121h267l73 403h125l-75 -403h284l76 403h123l-76 -403h160v-121h-182l-76 -401h233z" />
    <glyph glyph-name="dollar" unicode="$" 
d="M621 1401c61.333 -1.33301 113.5 -8.16992 156.5 -20.5029s78.167 -28.666 105.5 -48.999s47.166 -44.166 59.499 -71.499s18.5 -57 18.5 -89c0 -44 -14.667 -77.167 -44 -99.5s-68.666 -33.5 -117.999 -33.5c0 30 -2.5 60.167 -7.5 90.5s-14 58 -27 83
s-31.167 46.167 -54.5 63.5s-53 28 -89 32v-478c61.333 -26.667 115.666 -53.334 162.999 -80.001s87 -55.5 119 -86.5s56.333 -65.333 73 -103s25 -80.834 25 -129.501c0 -102.667 -33 -182.5 -99 -239.5s-159.667 -91.833 -281 -104.5v-248h-103v244
c-34 0 -68.333 1.5 -103 4.5s-68.5 8 -101.5 15s-64.667 15.833 -95 26.5s-58.166 23.334 -83.499 38.001v315h86c0 -38 7.16699 -74.833 21.5 -110.5s34.666 -67.667 60.999 -96s57.666 -51.666 93.999 -69.999s76.5 -29.166 120.5 -32.499v506
c-64 28.667 -118.167 57 -162.5 85s-80.166 57.5 -107.499 88.5s-47.166 64.5 -59.499 100.5s-18.5 76.333 -18.5 121c0 46 8.16699 87.667 24.5 125s39.5 69.833 69.5 97.5s66.5 50 109.5 67s91.167 28.5 144.5 34.5v159h103v-155zM813 398.996
c0 27.333 -3.33398 51.832 -10.001 73.499s-17.667 41.834 -33 60.501s-35.166 36 -59.499 52s-54.166 32 -89.499 48v-455c61.333 10.667 108.666 35.5 141.999 74.5s50 87.833 50 146.5zM353.999 1090c0 -28.667 3.50195 -53.833 10.502 -75.5s17.5 -40.834 31.5 -57.501
s31.167 -31.667 51.5 -45s43.833 -26 70.5 -38v429c-26.667 -6 -50.334 -15.5 -71.001 -28.5s-37.834 -28.667 -51.501 -47s-24 -39.166 -31 -62.499s-10.5 -48.333 -10.5 -75z" />
    <glyph glyph-name="percent" unicode="%" horiz-adv-x="1835" 
d="M764 1030c0 -68.667 -7.00195 -131 -21.002 -187s-35 -104 -63 -144s-63 -71 -105 -93s-91 -33 -147 -33c-58.667 0 -109.167 11 -151.5 33s-77.166 53 -104.499 93s-47.5 88 -60.5 144s-19.5 118.333 -19.5 187s6.5 130.834 19.5 186.501s33.167 103.334 60.5 143.001
s62.333 70.167 105 91.5s93.667 32 153 32c56 0 104.833 -10.667 146.5 -32s76.334 -51.833 104.001 -91.5s48.5 -87.334 62.5 -143.001s21 -117.834 21 -186.501zM275.998 1030c0 -58.667 2.66699 -111.167 8 -157.5s14 -85.5 26 -117.5s27.667 -56.333 47 -73
s43 -25 71 -25s51.667 8.33301 71 25s34.833 41 46.5 73s20 71.167 25 117.5s7.5 98.833 7.5 157.5c0 58 -2.5 109.667 -7.5 155s-13.333 83.833 -25 115.5s-26.834 55.667 -45.501 72s-42 24.5 -70 24.5s-51.833 -8.16699 -71.5 -24.5s-35.667 -40.333 -48 -72
s-21.166 -70.167 -26.499 -115.5s-8 -97 -8 -155zM1743 436c0 -68.667 -7 -131 -21 -187s-35 -104 -63 -144s-63 -70.833 -105 -92.5s-91 -32.5 -147 -32.5c-58.667 0 -109.334 10.833 -152.001 32.5s-77.5 52.5 -104.5 92.5s-47 88 -60 144s-19.5 118.333 -19.5 187
s6.5 130.834 19.5 186.501s33.167 103.334 60.5 143.001s62.333 70.167 105 91.5s93.667 32 153 32c56 0 104.833 -10.667 146.5 -32s76.334 -51.833 104.001 -91.5s48.5 -87.334 62.5 -143.001s21 -117.834 21 -186.501zM1255 436c0 -58.667 2.66699 -111.167 8 -157.5
s14 -85.5 26 -117.5s27.667 -56.333 47 -73s43 -25 71 -25s51.667 8.33301 71 25s34.666 41 45.999 73s19.5 71.167 24.5 117.5s7.5 98.833 7.5 157.5c0 58 -2.5 109.667 -7.5 155s-13.167 83.833 -24.5 115.5s-26.333 55.667 -45 72s-42 24.5 -70 24.5
s-51.833 -8.16699 -71.5 -24.5s-35.667 -40.333 -48 -72s-21.166 -70.167 -26.499 -115.5s-8 -97 -8 -155zM615.998 0h-135l731 1462h134z" />
    <glyph glyph-name="ampersand" unicode="&#x26;" horiz-adv-x="1520" 
d="M1174 0l-169.994 179.994c-24.667 -28 -51.834 -54.167 -81.501 -78.5s-62.5 -45.5 -98.5 -63.5s-75.833 -32.167 -119.5 -42.5s-91.5 -15.5 -143.5 -15.5c-82 0 -153.5 10.333 -214.5 31s-111.667 49.834 -152 87.501s-70.5 82.834 -90.5 135.501
s-30 111.334 -30 176.001c0 58 7.83301 108.5 23.5 151.5s37.667 80.833 66 113.5s62.666 61.334 102.999 86.001s85.166 47.334 134.499 68.001c-26 30.667 -48.833 60.167 -68.5 88.5s-36 56.5 -49 84.5s-22.833 56.667 -29.5 86s-10 60.666 -10 93.999
c0 45.333 7.33301 86.333 22 123s37.667 68.334 69 95.001s71.5 47.167 120.5 61.5s107.5 21.5 175.5 21.5c65.333 0 121 -7.66699 167 -23s83.5 -36.333 112.5 -63s50 -57.667 63 -93s19.5 -72.666 19.5 -111.999c0 -44 -6.33301 -83 -19 -117s-32.834 -65.333 -60.501 -94
s-63.334 -55.834 -107.001 -81.501s-96.834 -51.834 -159.501 -78.501l373 -395c9.33301 30.667 17 61.834 23 93.501s10.833 62.667 14.5 93s6.16699 60 7.5 89s2 55.833 2 80.5v80h369v-86h-19c-22.667 0 -45 -1.33301 -67 -4s-42.5 -8.83398 -61.5 -18.501
s-36 -23.667 -51 -42s-26.833 -43.166 -35.5 -74.499c-12 -44 -25.833 -91.667 -41.5 -143s-35.167 -102.666 -58.5 -153.999l190 -203c10 -10 20.333 -18.333 31 -25s23.167 -12 37.5 -16s31.333 -6.66699 51 -8s43.5 -2 71.5 -2h18v-86h-327zM580.006 93.9941
c40 0 77.167 4.16602 111.5 12.499s65.833 19.833 94.5 34.5s55 32.167 79 52.5s45.667 42.5 65 66.5l-453 485c-31.333 -17.333 -59.5 -36.5 -84.5 -57.5s-46.333 -45.333 -64 -73s-31.167 -58.834 -40.5 -93.501s-14 -74 -14 -118c0 -50 7.33301 -94.167 22 -132.5
s35.5 -70.666 62.5 -96.999s59.167 -46.166 96.5 -59.499s79 -20 125 -20zM813.006 1189.99c0 27.333 -3.33105 52.668 -9.99805 76.001s-17.5 43.5 -32.5 60.5s-34.667 30.5 -59 40.5s-53.833 15 -88.5 15c-60.667 0 -107.334 -17.667 -140.001 -53s-49 -82.333 -49 -141
c0 -26 2.66699 -50.333 8 -73s13.833 -45.167 25.5 -67.5s26.5 -45.5 44.5 -69.5s40 -50.333 66 -79c40 17.333 74.833 35.666 104.5 54.999s54.167 40.5 73.5 63.5s33.666 48.5 42.999 76.5s14 60 14 96z" />
    <glyph glyph-name="quotesingle" unicode="'" horiz-adv-x="451" 
d="M117 1462h217l-62 -481h-94z" />
    <glyph glyph-name="parenleft" unicode="(" horiz-adv-x="709" 
d="M330 649c0 -81.333 3.16699 -161.664 9.5 -240.997s20.166 -154.5 41.499 -225.5s52.833 -136.5 94.5 -196.5s97.5 -111.333 167.5 -154v-94c-94 37.333 -174.333 82.666 -241 135.999s-121.167 116.833 -163.5 190.5s-73.166 158.667 -92.499 255
s-29 206.166 -29 329.499s9.66699 232.833 29 328.5s50.166 180.167 92.499 253.5s96.833 136.5 163.5 189.5s147 98.167 241 135.5v-92c-70 -42.667 -125.833 -93.834 -167.5 -153.501s-73.167 -124.834 -94.5 -195.501s-35.166 -145.667 -41.499 -225
s-9.5 -159.666 -9.5 -240.999z" />
    <glyph glyph-name="parenright" unicode=")" horiz-adv-x="709" 
d="M379 649c0 81.333 -3.16699 161.664 -9.5 240.997s-20.333 154.333 -42 225s-53.167 135.834 -94.5 195.501s-97 110.834 -167 153.501v92c94 -37.333 174.333 -82.5 241 -135.5s121 -116.167 163 -189.5s72.833 -157.833 92.5 -253.5s29.5 -205.167 29.5 -328.5
s-9.83301 -233.166 -29.5 -329.499s-50.5 -181.333 -92.5 -255s-96.333 -137.167 -163 -190.5s-147 -98.666 -241 -135.999v94c70 42.667 125.667 94 167 154s72.833 125.5 94.5 196.5s35.667 146.167 42 225.5s9.5 159.666 9.5 240.999z" />
    <glyph glyph-name="asterisk" unicode="*" horiz-adv-x="1024" 
d="M84 1268l72 162l315 -199l-53 325h178l-57 -323l317 192l72 -159l-346 -101l346 -100l-72 -158l-317 191l57 -324h-178l51 324l-313 -195l-72 160l344 102z" />
    <glyph glyph-name="plus" unicode="+" 
d="M633 672v-379h-123v379h-377v121h377v378h123v-378h379v-121h-379z" />
    <glyph glyph-name="comma" unicode="," horiz-adv-x="512" 
d="M397 86c0 -43.333 -6.00293 -85.332 -18.0029 -125.999s-31.5 -78.334 -58.5 -113.001s-61.667 -65.834 -104 -93.501s-94.166 -50.5 -155.499 -68.5v86c67.333 21.333 116.666 47.333 147.999 78s47 66 47 106c0 13.333 -3.66699 24.5 -11 33.5s-16.666 17 -27.999 24
s-23.333 13.833 -36 20.5s-24.667 14.667 -36 24s-20.666 20.833 -27.999 34.5s-11 30.834 -11 51.501c0 39.333 12.833 69.333 38.5 90s57.5 31 95.5 31c21.333 0 41.333 -3.83301 60 -11.5s35.334 -19 50.001 -34s26.167 -33.667 34.5 -56s12.5 -47.833 12.5 -76.5z" />
    <glyph glyph-name="hyphen" unicode="-" horiz-adv-x="635" 
d="M51 481v154h533v-154h-533z" />
    <glyph glyph-name="period" unicode="." horiz-adv-x="586" 
d="M164 125c0 26.667 3.33301 48.834 10 66.501s15.834 31.834 27.501 42.501s25.334 18.334 41.001 23.001s32.5 7 50.5 7c17.333 0 33.833 -2.33301 49.5 -7s29.334 -12.334 41.001 -23.001s21 -24.834 28 -42.501s10.5 -39.834 10.5 -66.501c0 -26 -3.5 -48 -10.5 -66
s-16.333 -32.333 -28 -43s-25.334 -18.334 -41.001 -23.001s-32.167 -7 -49.5 -7c-18 0 -34.833 2.33301 -50.5 7s-29.334 12.334 -41.001 23.001s-20.834 25 -27.501 43s-10 40 -10 66z" />
    <glyph glyph-name="slash" unicode="/" horiz-adv-x="590" 
d="M121 -248h-121l471 1804h119z" />
    <glyph glyph-name="zero" unicode="0" 
d="M1053 733c0 -112.667 -9.83301 -215.334 -29.5 -308.001s-49.5 -172 -89.5 -238s-90 -117 -150 -153s-130.333 -54 -211 -54c-84 0 -156.333 18 -217 54s-110.5 87 -149.5 153s-67.833 145.5 -86.5 238.5s-28 196.167 -28 309.5s9.33301 216 28 308
s47.5 170.667 86.5 236s89 115.666 150 150.999s133.833 53 218.5 53c80 0 149.833 -17.667 209.5 -53s109.5 -85.666 149.5 -150.999s69.833 -144.166 89.5 -236.499s29.5 -195.5 29.5 -309.5zM305 733c0 -101.333 4.66602 -191.833 13.999 -271.5s24.5 -147 45.5 -202
s48.667 -97 83 -126s76.166 -43.5 125.499 -43.5c50 0 92 14.5 126 43.5s61.5 71 82.5 126s36 122.333 45 202s13.5 170.167 13.5 271.5s-4.5 191.666 -13.5 270.999s-24 146.333 -45 201s-48.333 96.167 -82 124.5s-75.167 42.5 -124.5 42.5
c-50 0 -92.167 -14.167 -126.5 -42.5s-62.166 -69.833 -83.499 -124.5s-36.666 -121.667 -45.999 -201s-14 -169.666 -14 -270.999z" />
    <glyph glyph-name="one" unicode="1" 
d="M197 0v85.999h137c23.333 0 45.166 1.66699 65.499 5s38 10.166 53 20.499s27 25.166 36 44.499s13.5 45 13.5 77v1076c-26 -32 -50.667 -61 -74 -87s-45.666 -48.333 -66.999 -67s-42.166 -33.167 -62.499 -43.5s-40.5 -15.5 -60.5 -15.5c-30 0 -54.667 10.167 -74 30.5
s-29 46.833 -29 79.5c20.667 5.33301 41.5 11.833 62.5 19.5s43.333 17.667 67 30s49.334 27.333 77.001 45s58.5 38.834 92.5 63.501l144 106h131v-1237c0 -32 4.33301 -57.667 13 -77s20.667 -34.166 36 -44.499s33.166 -17.166 53.499 -20.499s42.166 -5 65.499 -5h100
v-86h-780z" />
    <glyph glyph-name="two" unicode="2" 
d="M944 1141c0 -48 -7.66895 -94.668 -23.002 -140.001s-37.666 -91.833 -66.999 -139.5s-65.166 -97.167 -107.499 -148.5s-90.5 -106.666 -144.5 -165.999l-346 -383h473c30.667 0 56 4.33301 76 13s36.333 20 49 34s22.5 30.167 29.5 48.5s12.833 37.5 17.5 57.5l8 37h86
l-10 -354h-881v150l342 395c54.667 63.333 100.5 120 137.5 170s66.833 97.167 89.5 141.5s39 87.666 49 129.999s15 86.833 15 133.5c0 39.333 -4.16699 74.833 -12.5 106.5s-21 59 -38 82s-38.667 40.667 -65 53s-57.5 18.5 -93.5 18.5
c-46.667 0 -84.5 -8.33301 -113.5 -25s-51.833 -39 -68.5 -67s-28 -60.333 -34 -97s-9 -75.334 -9 -116.001c-24.667 0 -47.667 2 -69 6s-40 11.167 -56 21.5s-28.5 24 -37.5 41s-13.5 38.5 -13.5 64.5c0 39.333 8.5 75.833 25.5 109.5s42.333 62.834 76 87.501
s75.5 43.834 125.5 57.501s108 20.5 174 20.5c64.667 0 122.667 -8.16699 174 -24.5s95 -39.333 131 -69s63.5 -65.5 82.5 -107.5s28.5 -89 28.5 -141z" />
    <glyph glyph-name="three" unicode="3" 
d="M508 90c40.667 0 79.333 5.66211 116 16.9951s69 30 97 56s50.333 60 67 102s25 93.667 25 155c0 43.333 -8.5 82.5 -25.5 117.5s-41.5 64.833 -73.5 89.5s-71 43.834 -117 57.501s-97.667 20.5 -155 20.5h-65v104h65c45.333 0 87.5 7.5 126.5 22.5s73 36.167 102 63.5
s51.833 60.5 68.5 99.5s25 82.833 25 131.5c0 40 -4 75.667 -12 107s-20.833 58 -38.5 80s-40.334 38.667 -68.001 50s-61.167 17 -100.5 17c-46.667 0 -84.667 -8.33301 -114 -25s-52.333 -39 -69 -67s-28 -60.333 -34 -97s-9 -75.334 -9 -116.001
c-24.667 0 -47.667 2 -69 6s-40 11.167 -56 21.5s-28.5 24 -37.5 41s-13.5 38.5 -13.5 64.5c0 39.333 8.5 75.833 25.5 109.5s42.5 62.834 76.5 87.501s76 43.834 126 57.501s108 20.5 174 20.5c64.667 0 123.334 -7.33301 176.001 -22s97.834 -35.834 135.501 -63.501
s66.834 -61.667 87.501 -102s31 -86.5 31 -138.5c0 -46 -8.16699 -89.333 -24.5 -130s-39.166 -77.5 -68.499 -110.5s-64 -61.167 -104 -84.5s-83.667 -40.666 -131 -51.999c25.333 -2.66699 52.333 -7.16699 81 -13.5s57 -15.5 85 -27.5s54.833 -27 80.5 -45
s48.334 -40 68.001 -66s35.334 -56.167 47.001 -90.5s17.5 -74.166 17.5 -119.499c0 -54.667 -7.33301 -103.667 -22 -147s-34.834 -81.166 -60.501 -113.499s-55.5 -59.833 -89.5 -82.5s-70.333 -41 -109 -55s-78.334 -24.167 -119.001 -30.5s-80.667 -9.5 -120 -9.5
c-67.333 0 -125.333 6.16699 -174 18.5s-88.834 28.833 -120.501 49.5s-55 44.834 -70 72.501s-22.5 56.5 -22.5 86.5c0 41.333 11.667 73.5 35 96.5s54.666 34.5 93.999 34.5c0 -36 5.83301 -69.167 17.5 -99.5s28.5 -56.5 50.5 -78.5s49.167 -39.167 81.5 -51.5
s69.166 -18.5 110.499 -18.5z" />
    <glyph glyph-name="four" unicode="4" 
d="M862 401v-168c0 -32 4.5 -57.667 13.5 -77s21 -34.166 36 -44.499s32.833 -17.166 53.5 -20.499s42.334 -5 65.001 -5h27v-86h-617v86h58c23.333 0 45.166 1.66699 65.499 5s38 10.166 53 20.499s27 25.166 36 44.499s13.5 45 13.5 77v168h-631v84l633 977h194v-946h254
v-115h-254zM666 895c0 30 0.333008 63 1 99s1.5 72.667 2.5 110s2.33301 74.5 4 111.5s3.83398 71.5 6.50098 103.5c-4.66699 -9.33301 -11.334 -21.833 -20.001 -37.5l-29.5 -52.5l-35 -61l-37 -62.5l-34.5 -57c-10.667 -17.667 -20 -32.5 -28 -44.5l-314 -488h484v379z
" />
    <glyph glyph-name="five" unicode="5" 
d="M489 100c42 0 80.835 5.8291 116.502 17.4961s66.667 31 93 58s46.833 62.667 61.5 107s22 98.833 22 163.5c0 54 -7.33301 101 -22 141s-35.667 73.333 -63 100s-60 46.5 -98 59.5s-80.667 19.5 -128 19.5c-35.333 0 -65.833 -1.33301 -91.5 -4
s-48.334 -6.16699 -68.001 -10.5s-36.834 -9.16602 -51.501 -14.499s-28.334 -10.666 -41.001 -15.999l-49 14l66 725h684l10 -309h-86l-8 61c-2 14.667 -4.83301 27.167 -8.5 37.5s-9.5 19 -17.5 26s-18.833 12.167 -32.5 15.5s-31.167 5 -52.5 5h-397l-39 -450
c20.667 7.33301 50.5 14.666 89.5 21.999s88.833 11 149.5 11c66 0 127.5 -9 184.5 -27s106.5 -45 148.5 -81s74.833 -81.167 98.5 -135.5s35.5 -117.5 35.5 -189.5c0 -69.333 -11.167 -132.666 -33.5 -189.999s-54.666 -106.5 -96.999 -147.5s-94.166 -72.667 -155.499 -95
s-131 -33.5 -209 -33.5c-76 0 -138.833 6.5 -188.5 19.5s-89.167 29.5 -118.5 49.5s-50 42.167 -62 66.5s-18 47.833 -18 70.5c0 38 10.5 67.667 31.5 89s53.5 32 97.5 32c0 -29.333 5.16699 -56.666 15.5 -81.999s25.666 -47.166 45.999 -65.499s46 -32.833 77 -43.5
s67.167 -16 108.5 -16z" />
    <glyph glyph-name="six" unicode="6" 
d="M659 1384c-102.667 0 -180.33 -50.5039 -232.997 -151.504s-82.667 -251.167 -90 -450.5c16.667 14 35.167 27.5 55.5 40.5s42.5 24.333 66.5 34s50.167 17.5 78.5 23.5s59.166 9 92.499 9c62.667 0 119.334 -9.66699 170.001 -29s93.834 -47 129.501 -83
s63.167 -80 82.5 -132s29 -110.667 29 -176c0 -72 -9.83301 -138 -29.5 -198s-48.334 -111.5 -86.001 -154.5s-83.667 -76.5 -138 -100.5s-116.5 -36 -186.5 -36c-68 0 -131 14.167 -189 42.5s-108.167 73 -150.5 134s-75.5 139.333 -99.5 235s-36 210.834 -36 345.501
c0 64.667 4.83301 128 14.5 190s24.167 120.667 43.5 176s43.666 106.333 72.999 153s63.833 86.834 103.5 120.501s84.5 59.834 134.5 78.501s105 28 165 28c57.333 0 107.166 -6 149.499 -18s77.5 -28 105.5 -48s48.833 -43 62.5 -69s20.5 -52.667 20.5 -80
c0 -39.333 -13.333 -69.666 -40 -90.999s-65.667 -32 -117 -32c0 33.333 -3.16699 64.5 -9.5 93.5s-16.833 54.333 -31.5 76s-33.334 38.667 -56.001 51s-50.667 18.5 -84 18.5zM588.004 783.996c-26.667 0 -52.3291 -3.49902 -76.9961 -10.499s-47.834 -16 -69.501 -27
s-41.5 -23.667 -59.5 -38s-34 -28.5 -48 -42.5c1.33301 -102.667 8.5 -190.334 21.5 -263.001s31.167 -132 54.5 -178s51.666 -79.667 84.999 -101s70.333 -32 111 -32c73.333 0 129.166 28.5 167.499 85.5s57.5 147.5 57.5 271.5c0 116.667 -20.833 201.667 -62.5 255
s-101.834 80 -180.501 80z" />
    <glyph glyph-name="seven" unicode="7" 
d="M389 0l483 1296h-538c-73.333 0 -113 -34.667 -119 -104l-8 -102h-86l10 370h916v-59l-504 -1401h-154z" />
    <glyph glyph-name="eight" unicode="8" 
d="M94 367c0 49.333 7.83594 92.5 23.5029 129.5s37.5 70 65.5 99s61 55.167 99 78.5s79.333 45.666 124 66.999c-38.667 22 -74.334 45.833 -107.001 71.5s-60.667 53.834 -84 84.501s-41.5 64.167 -54.5 100.5s-19.5 75.833 -19.5 118.5c0 47.333 8.33301 93 25 137
s42.667 83 78 117s81.166 61.333 137.499 82s123.833 31 202.5 31c64 0 121 -8.83301 171 -26.5s92.167 -42.167 126.5 -73.5s60.5 -68.5 78.5 -111.5s27 -90.167 27 -141.5c0 -44.667 -6.66699 -84 -20 -118s-32 -64.5 -56 -91.5s-53 -51.333 -87 -73
s-71.667 -42.834 -113 -63.501c50.667 -24 96.834 -49.667 138.501 -77s77.5 -57 107.5 -89s53.167 -66.667 69.5 -104s24.5 -78.333 24.5 -123c0 -64.667 -11.667 -122.5 -35 -173.5s-56.333 -94.167 -99 -129.5s-94.334 -62.166 -155.001 -80.499
s-128.334 -27.5 -203.001 -27.5c-76.667 0 -144 10 -202 30s-106.5 47.5 -145.5 82.5s-68.333 76 -88 123s-29.5 97.5 -29.5 151.5zM569.003 74c44.667 0 85.1689 6.83203 121.502 20.499s67.333 32.5 93 56.5s45.5 52.667 59.5 86s21 69.666 21 108.999
c0 34.667 -6.33301 66.834 -19 96.501s-33.334 58.334 -62.001 86.001s-65.834 54.667 -111.501 81s-101.5 53.833 -167.5 82.5c-64.667 -34.667 -116 -79.667 -154 -135s-57 -121.666 -57 -198.999c0 -42.667 5.83301 -81.334 17.5 -116.001s29 -64.5 52 -89.5
s51.833 -44.333 86.5 -58s74.667 -20.5 120 -20.5zM805.005 1135c0 31.333 -4.16797 62.002 -12.501 92.002s-21.666 56.833 -39.999 80.5s-42.333 42.667 -72 57s-66.167 21.5 -109.5 21.5c-38 0 -71.833 -6.16699 -101.5 -18.5s-54.5 -29.333 -74.5 -51
s-35.167 -47.5 -45.5 -77.5s-15.5 -62.667 -15.5 -98c0 -36.667 5.83301 -69.667 17.5 -99s29 -56 52 -80s51.833 -46.5 86.5 -67.5s74.667 -42.167 120 -63.5c38.667 19.333 70.5 39.166 95.5 59.499s44.833 42.666 59.5 66.999s25 51 31 80s9 61.5 9 97.5z" />
    <glyph glyph-name="nine" unicode="9" 
d="M467 90c113.333 0 196.999 50.6709 250.999 152.004s84.333 254.666 91 459.999c-14.667 -18 -31.834 -35.333 -51.501 -52s-42 -31.5 -67 -44.5s-52.667 -23.333 -83 -31s-63.5 -11.5 -99.5 -11.5c-59.333 0 -113.833 8.66699 -163.5 26s-92.334 43.333 -128.001 78
s-63.334 78 -83.001 130s-29.5 112.667 -29.5 182c0 74 10 141.833 30 203.5s48.833 114.667 86.5 159s83.667 79 138 104s115.833 37.5 184.5 37.5c69.333 0 133 -13.333 191 -40s108.333 -68 151 -124s75.834 -127.333 99.501 -214s35.5 -190 35.5 -310
c0 -71.333 -4.5 -141.166 -13.5 -209.499s-23 -132.833 -42 -193.5s-43.333 -116.334 -73 -167.001s-65 -94.5 -106 -131.5s-88.167 -65.667 -141.5 -86s-113 -30.5 -179 -30.5c-58 0 -106.167 5.16699 -144.5 15.5s-68.666 23.833 -90.999 40.5s-38.166 35.667 -47.499 57
s-14 42.666 -14 63.999c0 25.333 6.33301 46.666 19 63.999s26.667 28.666 42 33.999c9.33301 -21.333 20.833 -41.833 34.5 -61.5s30.334 -37 50.001 -52s42.167 -26.833 67.5 -35.5s54 -13 86 -13zM552.999 684.004c33.333 0.666992 63.8301 5.5 91.4971 14.5
s52.167 21 73.5 36s39.833 32.5 55.5 52.5s28.167 41 37.5 63v4c-1.33301 90 -8.66602 167.5 -21.999 232.5s-31.666 118.5 -54.999 160.5s-51.166 73 -83.499 93s-68.166 30 -107.499 30c-72.667 0 -128.834 -31.667 -168.501 -95s-59.5 -155.333 -59.5 -276
c0 -56 5 -104 15 -144s25 -72.667 45 -98s44.833 -43.833 74.5 -55.5s64.167 -17.5 103.5 -17.5z" />
    <glyph glyph-name="colon" unicode=":" horiz-adv-x="588" 
d="M166 125c0 26.667 3.33301 48.834 10 66.501s15.834 31.834 27.501 42.501s25.334 18.334 41.001 23.001s32.5 7 50.5 7c17.333 0 33.833 -2.33301 49.5 -7s29.334 -12.334 41.001 -23.001s21 -24.834 28 -42.501s10.5 -39.834 10.5 -66.501c0 -26 -3.5 -48 -10.5 -66
s-16.333 -32.333 -28 -43s-25.334 -18.334 -41.001 -23.001s-32.167 -7 -49.5 -7c-18 0 -34.833 2.33301 -50.5 7s-29.334 12.334 -41.001 23.001s-20.834 25 -27.501 43s-10 40 -10 66zM166 969c0 26.667 3.33301 48.834 10 66.501s15.834 31.834 27.501 42.501
s25.334 18.334 41.001 23.001s32.5 7 50.5 7c17.333 0 33.833 -2.33301 49.5 -7s29.334 -12.334 41.001 -23.001s21 -24.834 28 -42.501s10.5 -39.834 10.5 -66.501c0 -26 -3.5 -48 -10.5 -66s-16.333 -32.5 -28 -43.5s-25.334 -18.833 -41.001 -23.5s-32.167 -7 -49.5 -7
c-18 0 -34.833 2.33301 -50.5 7s-29.334 12.5 -41.001 23.5s-20.834 25.5 -27.501 43.5s-10 40 -10 66z" />
    <glyph glyph-name="semicolon" unicode=";" horiz-adv-x="512" 
d="M397 86c0 -43.333 -6.00293 -85.332 -18.0029 -125.999s-31.5 -78.334 -58.5 -113.001s-61.667 -65.834 -104 -93.501s-94.166 -50.5 -155.499 -68.5v86c67.333 21.333 116.666 47.333 147.999 78s47 66 47 106c0 13.333 -3.66699 24.5 -11 33.5s-16.666 17 -27.999 24
s-23.333 13.833 -36 20.5s-24.667 14.667 -36 24s-20.666 20.833 -27.999 34.5s-11 30.834 -11 51.501c0 39.333 12.833 69.333 38.5 90s57.5 31 95.5 31c21.333 0 41.333 -3.83301 60 -11.5s35.334 -19 50.001 -34s26.167 -33.667 34.5 -56s12.5 -47.833 12.5 -76.5z
M128.997 969.001c0 26.667 3.33301 48.834 10 66.501s15.834 31.834 27.501 42.501s25.334 18.334 41.001 23.001s32.5 7 50.5 7c17.333 0 33.833 -2.33301 49.5 -7s29.334 -12.334 41.001 -23.001s21 -24.834 28 -42.501s10.5 -39.834 10.5 -66.501
c0 -26 -3.5 -48 -10.5 -66s-16.333 -32.5 -28 -43.5s-25.334 -18.833 -41.001 -23.5s-32.167 -7 -49.5 -7c-18 0 -34.833 2.33301 -50.5 7s-29.334 12.5 -41.001 23.5s-20.834 25.5 -27.501 43.5s-10 40 -10 66z" />
    <glyph glyph-name="less" unicode="&#x3c;" 
d="M133 696v72l879 473v-137l-688 -373l688 -369v-137z" />
    <glyph glyph-name="equal" unicode="=" 
d="M1012 590v-121h-879v121h879zM1012 993v-121h-879v121h879z" />
    <glyph glyph-name="greater" unicode="&#x3e;" 
d="M133 225v137l688 369l-688 373v137l879 -473v-72z" />
    <glyph glyph-name="question" unicode="?" horiz-adv-x="1024" 
d="M522 412l-124.999 0.000976562v311c59.333 24 109.166 51.833 149.499 83.5s72.666 66 96.999 103s41.666 75.667 51.999 116s15.5 80.833 15.5 121.5c0 35.333 -4.33301 67.5 -13 96.5s-22 53.667 -40 74s-41.167 36.166 -69.5 47.499s-62.166 17 -101.499 17
c-42.667 0 -78.5 -7 -107.5 -21s-52.5 -33 -70.5 -57s-31 -51.833 -39 -83.5s-12 -65.167 -12 -100.5c-24.667 0 -47.334 2.83301 -68.001 8.5s-38.5 14 -53.5 25s-26.833 24.833 -35.5 41.5s-13 36 -13 58c0 32.667 7.5 63 22.5 91s38.333 52.333 70 73
s71.5 36.834 119.5 48.501s105 17.5 171 17.5c64.667 0 124.334 -8.33301 179.001 -25s102 -40.834 142 -72.501s71.333 -70.5 94 -116.5s34 -98.333 34 -157c0 -56 -8.83301 -107 -26.5 -153s-43.5 -88 -77.5 -126s-75.667 -72.667 -125 -104s-105.666 -60 -168.999 -86
v-231zM328.001 125.001c0 26.667 3.33301 48.834 10 66.501s15.834 31.834 27.501 42.501s25.334 18.334 41.001 23.001s32.5 7 50.5 7c17.333 0 33.833 -2.33301 49.5 -7s29.334 -12.334 41.001 -23.001s21 -24.834 28 -42.501s10.5 -39.834 10.5 -66.501
c0 -26 -3.5 -48 -10.5 -66s-16.333 -32.333 -28 -43s-25.334 -18.334 -41.001 -23.001s-32.167 -7 -49.5 -7c-18 0 -34.833 2.33301 -50.5 7s-29.334 12.334 -41.001 23.001s-20.834 25 -27.501 43s-10 40 -10 66z" />
    <glyph glyph-name="at" unicode="@" horiz-adv-x="1886" 
d="M1778 803c0 -98.667 -12.0068 -187.83 -36.0068 -267.497s-55.333 -147.5 -94 -203.5s-81.834 -99 -129.501 -129s-95.167 -45 -142.5 -45c-60.667 0 -111.167 16.333 -151.5 49s-70.166 78.334 -89.499 137.001h-11c-14 -26.667 -29.833 -51.334 -47.5 -74.001
s-37.667 -42.334 -60 -59.001s-47.333 -29.667 -75 -39s-58.834 -14 -93.501 -14c-41.333 0 -80.833 7 -118.5 21s-70.667 35.333 -99 64s-51 65 -68 109s-25.5 96 -25.5 156c0 36.667 4.16699 76.334 12.5 119.001s21.333 85.167 39 127.5s40.334 83.333 68.001 123
s60.834 74.667 99.501 105s83.167 54.666 133.5 72.999s106.833 27.5 169.5 27.5c44 0 81.833 -6 113.5 -18s57.834 -26.333 78.501 -43l82 43h49l-104 -522c-2 -16 -4.33301 -32 -7 -48c-2 -13.333 -3.66699 -28 -5 -44s-2 -31 -2 -45c0 -24 3.5 -44.833 10.5 -62.5
s16.167 -32.334 27.5 -44.001s24.5 -20.167 39.5 -25.5s30.833 -8 47.5 -8c30 0 60.667 12 92 36s59.666 59.167 84.999 105.5s46.166 103.166 62.499 170.499s24.5 144.333 24.5 231c0 89.333 -14.333 168.166 -43 236.499s-68.5 125.666 -119.5 171.999
s-112 81.333 -183 105s-149.167 35.5 -234.5 35.5c-66.667 0 -132.167 -9.33301 -196.5 -28s-125.166 -46.167 -182.499 -82.5s-110.5 -80.666 -159.5 -132.999s-91.167 -112 -126.5 -179s-63 -141.167 -83 -222.5s-30 -168.666 -30 -261.999
c0 -114 16.333 -211.167 49 -291.5s76.834 -146 132.501 -197s120.334 -88.167 194.001 -111.5s151.834 -35 234.501 -35c56 0 109 4.83301 159 14.5s96.833 22.5 140.5 38.5s84 34.167 121 54.5s70.167 41.166 99.5 62.499l48 -74c-34 -25.333 -72 -50.166 -114 -74.499
s-87.5 -46 -136.5 -65s-101.667 -34.333 -158 -46s-116.166 -17.5 -179.499 -17.5c-110 0 -211 15.167 -303 45.5s-171.167 76.166 -237.5 137.499s-118.166 138 -155.499 230s-56 200 -56 324c0 96.667 10.5 188.834 31.5 276.501s51.333 169.167 91 244.5
s87.667 143.5 144 204.5s119.833 113 190.5 156s147.5 76.167 230.5 99.5s171.167 35 264.5 35c114.667 0 215.334 -17 302.001 -51s159 -80.5 217 -139.5s101.5 -128.667 130.5 -209s43.5 -166.833 43.5 -259.5zM726.993 479.004c0 -72 14.5029 -125.498 43.5029 -160.498
s66.5 -52.5 112.5 -52.5c34.667 0 64.667 7.5 90 22.5s46.666 34.5 63.999 58.5s31.333 51.333 42 82s19 61.667 25 93l78 416c-8.66699 19.333 -23.834 34.333 -45.501 45s-44.834 16 -69.501 16c-40.667 0 -77.5 -8.83301 -110.5 -26.5s-62 -40.834 -87 -69.501
s-46.5 -61.5 -64.5 -98.5s-32.833 -74.833 -44.5 -113.5s-20.167 -76.334 -25.5 -113.001s-8 -69.667 -8 -99z" />
    <glyph glyph-name="A" unicode="A" horiz-adv-x="1444" 
d="M414 489l-77.998 -215.002c-6 -16 -10.667 -31.833 -14 -47.5s-5 -29.167 -5 -40.5c0 -34.667 11.167 -60 33.5 -76s56.5 -24 102.5 -24h47v-86h-500v86h39c20 0 37 2.16699 51 6.5s26.667 12.5 38 24.5s22.166 28.333 32.499 49s21.833 47.334 34.5 80.001l454 1216h160
l463 -1267c8 -21.333 16.167 -39 24.5 -53s18.166 -25.167 29.499 -33.5s24.333 -14.166 39 -17.499s32 -5 52 -5h27v-86h-563v86h47c82 0 123 32.667 123 98c0 11.333 -1.5 23 -4.5 35s-7.16699 25.667 -12.5 41l-82 229h-538zM788.002 949.998l-58.502 170.5
c-17.667 53 -32.167 104.167 -43.5 153.5c-4.66699 -24.667 -10.167 -48.5 -16.5 -71.5s-13.166 -46.5 -20.499 -70.5s-15.666 -49.167 -24.999 -75.5l-32 -87.5l-139 -377h462z" />
    <glyph glyph-name="B" unicode="B" horiz-adv-x="1339" 
d="M1153 1096c0 -46 -6.50098 -86.3311 -19.501 -120.998s-30.833 -65 -53.5 -91s-49.5 -47.833 -80.5 -65.5s-64.5 -32.5 -100.5 -44.5v-8c46.667 -8 89.334 -21.667 128.001 -41s71.834 -44.5 99.501 -75.5s49.167 -67.667 64.5 -110s23 -90.5 23 -144.5
c0 -132 -43.333 -230.833 -130 -296.5s-218.667 -98.5 -396 -98.5h-610v86h26c23.333 0 45.166 1.66699 65.499 5s38.166 10.166 53.499 20.499s27.333 25.166 36 44.499s13 45 13 77v1004c0 30 -4.5 54.167 -13.5 72.5s-21.167 32.5 -36.5 42.5s-33.166 16.5 -53.499 19.5
s-41.833 4.5 -64.5 4.5h-26v86h549c177.333 0 309.333 -29.5 396 -88.5s130 -151.5 130 -277.5zM478.999 102.002h199.001c58 0 107 5.33301 147 16s72.667 27.834 98 51.501s43.666 54.5 54.999 92.5s17 84.333 17 139c0 53.333 -5 99.666 -15 138.999s-27.167 72 -51.5 98
s-56.5 45.333 -96.5 58s-90 19 -150 19h-203v-613zM479 817.002h141.998c60 0 110 5.33301 150 16s72 27.167 96 49.5s41.167 51.166 51.5 86.499s15.5 77.666 15.5 126.999c0 50 -5.66699 91.833 -17 125.5s-29.666 60.834 -54.999 81.501s-58.166 35.334 -98.499 44.001
s-89.5 13 -147.5 13h-137v-543z" />
    <glyph glyph-name="C" unicode="C" horiz-adv-x="1257" 
d="M774 1483c70 0 130.835 -5.83203 182.502 -17.499s94.667 -27.834 129 -48.501s60 -45 77 -73s25.5 -58.333 25.5 -91c0 -22 -4.5 -41.833 -13.5 -59.5s-21.5 -32.667 -37.5 -45s-34.833 -21.833 -56.5 -28.5s-45.167 -10 -70.5 -10c0 32 -4.16699 63.667 -12.5 95
s-22 59.5 -41 84.5s-43.667 45.333 -74 61s-67.833 23.5 -112.5 23.5c-77.333 0 -143 -14.167 -197 -42.5s-98 -69.666 -132 -123.999s-58.667 -121.333 -74 -201s-23 -170.834 -23 -273.501c0 -91.333 8 -175 24 -251s41.333 -141.167 76 -195.5
s78.834 -96.5 132.501 -126.5s118.167 -45 193.5 -45c50 0 94.167 4.83301 132.5 14.5s72.166 22.5 101.499 38.5s55.166 34.5 77.499 55.5s42.166 42.833 59.499 65.5c11.333 -7.33301 20.666 -17.333 27.999 -30s11 -29.334 11 -50.001c0 -26 -8.83301 -52.5 -26.5 -79.5
s-44.5 -51.5 -80.5 -73.5s-81.667 -40.167 -137 -54.5s-121 -21.5 -197 -21.5c-102 0 -191.667 18 -269 54s-142.166 87 -194.499 153s-91.833 145.333 -118.5 238s-40 195.334 -40 308.001c0 110.667 14 212 42 304s69.5 171 124.5 237s123.5 117.333 205.5 154
s177 55 285 55z" />
    <glyph glyph-name="D" unicode="D" horiz-adv-x="1489" 
d="M1372 733c0 -112 -14.001 -213.165 -42.001 -303.498s-69.667 -167.333 -125 -231s-124.666 -112.667 -207.999 -147s-180.666 -51.5 -291.999 -51.5h-627v86h26c23.333 0 45.166 1.66699 65.499 5s38.166 10.166 53.499 20.499s27.333 25.166 36 44.499s13 45 13 77
v1004c0 30 -4.5 54.167 -13.5 72.5s-21.167 32.5 -36.5 42.5s-33.166 16.5 -53.499 19.5s-41.833 4.5 -64.5 4.5h-26v86h627c105.333 0 199.333 -16.167 282 -48.5s152.5 -79.5 209.5 -141.5s100.5 -138.333 130.5 -229s45 -194 45 -310zM656.999 104.002
c81.333 0 152.5 13.834 213.5 41.501s111.833 68.167 152.5 121.5s71.167 119 91.5 197s30.5 167.667 30.5 269c0 203.333 -40.5 358.666 -121.5 465.999s-202.5 161 -364.5 161h-180v-1256h178z" />
    <glyph glyph-name="E" unicode="E" horiz-adv-x="1276" 
d="M479 102l395.001 0.00488281c32.667 0 60.5 4.5 83.5 13.5s42.167 21.167 57.5 36.5s27.333 33.166 36 53.499s14.667 41.833 18 64.5l14 88h107l-14 -358h-1098v86h26c22.667 0 44.167 1.5 64.5 4.5s38.166 9.16699 53.499 18.5s27.5 23.166 36.5 41.499
s13.5 42.5 13.5 72.5v1006c0 32 -4.33301 57.667 -13 77s-20.667 34.166 -36 44.499s-33.166 17.166 -53.499 20.499s-42.166 5 -65.499 5h-26v86h1032l10 -358h-106l-10 88c-2.66699 22.667 -7.83398 44.167 -15.501 64.5s-18.667 38.166 -33 53.499s-32.333 27.5 -54 36.5
s-47.834 13.5 -78.501 13.5h-344v-545h494v-100h-494v-613z" />
    <glyph glyph-name="F" unicode="F" horiz-adv-x="1208" 
d="M479 1360l-0.000976562 -592h494v-100h-494v-435c0 -32 4.5 -57.667 13.5 -77s21 -34.166 36 -44.499s32.833 -17.166 53.5 -20.499s42.334 -5 65.001 -5h68v-86h-637v86h26c22.667 0 44.167 1.5 64.5 4.5s38.166 9.16699 53.499 18.5s27.5 23.166 36.5 41.499
s13.5 42.5 13.5 72.5v1014c0 30 -4.5 54.167 -13.5 72.5s-21.167 32.5 -36.5 42.5s-33.166 16.5 -53.499 19.5s-41.833 4.5 -64.5 4.5h-26v86h1032l10 -358h-106l-10 88c-2.66699 23.333 -8 45.166 -16 65.499s-19.5 38 -34.5 53s-33.833 27 -56.5 36s-50 13.5 -82 13.5
h-336z" />
    <glyph glyph-name="G" unicode="G" horiz-adv-x="1462" 
d="M821 -20c-118.667 0 -222.17 17.999 -310.503 53.999s-161.666 87 -219.999 153s-101.833 145.333 -130.5 238s-43 195.334 -43 308.001c0 110.667 15.167 212 45.5 304s75.666 171 135.999 237s135.166 117.333 224.499 154s193 55 311 55
c76 0 142.167 -5.83301 198.5 -17.5s103.333 -27.834 141 -48.501s65.834 -45 84.501 -73s28 -58.333 28 -91c0 -22 -5 -41.833 -15 -59.5s-23.5 -32.667 -40.5 -45s-37 -21.833 -60 -28.5s-47.833 -10 -74.5 -10c0 32 -4.66699 63.667 -14 95s-24.666 59.5 -45.999 84.5
s-49.333 45.333 -84 61s-77 23.5 -127 23.5c-86.667 0 -160.5 -14.167 -221.5 -42.5s-110.833 -69.666 -149.5 -123.999s-66.667 -121.333 -84 -201s-26 -170.834 -26 -273.501c0 -102 9 -192.667 27 -272s47.333 -146 88 -200s93.334 -95 158.001 -123s143.667 -42 237 -42
c39.333 0 77.5 2 114.5 6s69.833 10.333 98.5 19v330c0 30 -4.5 54.167 -13.5 72.5s-21.167 32.333 -36.5 42s-33.166 16.167 -53.499 19.5s-41.833 5 -64.5 5h-8v86h532v-86h-8c-19.333 0 -37.666 -1.66699 -54.999 -5s-32.333 -10.166 -45 -20.499
s-22.667 -25.333 -30 -45s-11 -45.5 -11 -77.5v-368c-68.667 -32 -139.334 -55.667 -212.001 -71s-153 -23 -241 -23z" />
    <glyph glyph-name="H" unicode="H" horiz-adv-x="1624" 
d="M950 0v85.999h27c23.333 0 45.166 1.66699 65.499 5s38 10.166 53 20.499s27 25.166 36 44.499s13.5 45 13.5 77v480h-666v-480c0 -32 4.5 -57.667 13.5 -77s21 -34.166 36 -44.499s32.833 -17.166 53.5 -20.499s42.334 -5 65.001 -5h27v-86h-596v86h26
c23.333 0 45.166 1.66699 65.499 5s38.166 10.166 53.499 20.499s27.333 25.166 36 44.499s13 45 13 77v1004c0 30 -4.5 54.167 -13.5 72.5s-21.167 32.5 -36.5 42.5s-33.166 16.5 -53.499 19.5s-41.833 4.5 -64.5 4.5h-26v86h596v-86h-27
c-22.667 0 -44.334 -1.66699 -65.001 -5s-38.5 -10.166 -53.5 -20.499s-27 -25.166 -36 -44.499s-13.5 -45 -13.5 -77v-414h666v414c0 32 -4.5 57.667 -13.5 77s-21 34.166 -36 44.499s-32.667 17.166 -53 20.499s-42.166 5 -65.499 5h-27v86h596v-86h-26
c-23.333 0 -45.166 -1.66699 -65.499 -5s-38.166 -10.166 -53.499 -20.499s-27.333 -25.166 -36 -44.499s-13 -45 -13 -77v-1006c0 -30 4.5 -54.167 13.5 -72.5s21.167 -32.166 36.5 -41.499s33.166 -15.5 53.499 -18.5s41.833 -4.5 64.5 -4.5h26v-86h-596z" />
    <glyph glyph-name="I" unicode="I" horiz-adv-x="752" 
d="M78 0v86h26c23.333 0 45.166 1.66699 65.499 5s38.166 10.166 53.499 20.499s27.333 25.166 36 44.499s13 45 13 77v996c0 32 -4.33301 57.667 -13 77s-20.667 34.166 -36 44.499s-33.166 17.166 -53.499 20.499s-42.166 5 -65.499 5h-26v86h596v-86h-27
c-22.667 0 -44.334 -1.66699 -65.001 -5s-38.5 -10.166 -53.5 -20.499s-27 -25.166 -36 -44.499s-13.5 -45 -13.5 -77v-996c0 -32 4.5 -57.667 13.5 -77s21 -34.166 36 -44.499s32.833 -17.166 53.5 -20.499s42.334 -5 65.001 -5h27v-86h-596z" />
    <glyph glyph-name="J" unicode="J" horiz-adv-x="731" 
d="M-23 -395l19.002 -0.00292969c44 0 83.167 6.16699 117.5 18.5s63.166 33 86.499 62s41.166 67.667 53.499 116s18.5 108.5 18.5 180.5v1255c0 30 -4.5 54.167 -13.5 72.5s-21.167 32.5 -36.5 42.5s-33.166 16.5 -53.499 19.5s-41.833 4.5 -64.5 4.5h-26v86h596v-86h-27
c-22.667 0 -44.334 -1.66699 -65.001 -5s-38.5 -10.166 -53.5 -20.499s-27 -25.166 -36 -44.499s-13.5 -45 -13.5 -77v-1245c0 -92 -12 -168.5 -36 -229.5s-57 -109.667 -99 -146s-91.5 -62.166 -148.5 -77.499s-118.167 -23 -183.5 -23h-35v97z" />
    <glyph glyph-name="K" unicode="K" horiz-adv-x="1434" 
d="M903 1137c22 25.333 40.334 47.8301 55.001 67.4971s26.167 37.5 34.5 53.5s14.333 30 18 42s5.5 23 5.5 33c0 17.333 -8.33301 29.166 -25 35.499s-42 9.5 -76 9.5v84h453v-84c-23.333 0 -45.833 -4.5 -67.5 -13.5s-43.334 -21.667 -65.001 -38s-44 -36.333 -67 -60
l-74.5 -80.5l-297 -334l432 -602c39.333 -54 77.166 -94.833 113.499 -122.5s73.5 -41.5 111.5 -41.5h4v-86h-22c-68.667 0 -125 2.66699 -169 8s-81 15 -111 29s-56.167 32.833 -78.5 56.5s-46.166 53.834 -71.499 90.501l-353 506l-174 -141v-316
c0 -32 4.5 -57.667 13.5 -77s21 -34.166 36 -44.499s32.833 -17.166 53.5 -20.499s42.334 -5 65.001 -5h27v-86h-596v86h26c22.667 0 44.167 1.5 64.5 4.5s38.166 9.16699 53.499 18.5s27.5 23.166 36.5 41.499s13.5 42.5 13.5 72.5v1014c0 30 -4.5 54.167 -13.5 72.5
s-21.167 32.5 -36.5 42.5s-33.166 16.5 -53.499 19.5s-41.833 4.5 -64.5 4.5h-26v86h596v-86h-27c-22.667 0 -44.334 -1.66699 -65.001 -5s-38.5 -10.166 -53.5 -20.499s-27 -25.166 -36 -44.499s-13.5 -45 -13.5 -77v-578z" />
    <glyph glyph-name="L" unicode="L" horiz-adv-x="1276" 
d="M78 0l-0.00292969 86.0039h26c23.333 0 45.166 1.66699 65.499 5s38.166 10.166 53.499 20.499s27.333 25.166 36 44.499s13 45 13 77v996c0 32 -4.33301 57.667 -13 77s-20.667 34.166 -36 44.499s-33.166 17.166 -53.499 20.499s-42.166 5 -65.499 5h-26v86h596v-86
h-27c-22.667 0 -44.167 -1.5 -64.5 -4.5s-38.166 -9.5 -53.499 -19.5s-27.5 -24.167 -36.5 -42.5s-13.5 -42.5 -13.5 -72.5v-1135h404c30.667 0 56.834 5.5 78.501 16.5s39.5 25.333 53.5 43s24.833 37.5 32.5 59.5s12.834 44 15.501 66l20 153h107l-14 -440h-1098z" />
    <glyph glyph-name="M" unicode="M" horiz-adv-x="1921" 
d="M1298 0l0.00195312 85.9951h7c22 0 41.833 1.5 59.5 4.5s32.667 9 45 18s22.166 22 29.499 39s11.666 39.5 12.999 67.5v1094l-469 -1309h-111l-475 1305v-1072c0 -32 3.33301 -57.667 10 -77s16.5 -34.166 29.5 -44.499s28.667 -17.166 47 -20.499s38.833 -5 61.5 -5h6
v-86h-473v86h26c22.667 0 44.167 1.5 64.5 4.5s38.166 9.16699 53.499 18.5s27.5 23.166 36.5 41.499s13.5 42.5 13.5 72.5v1014c0 30 -4.5 54.167 -13.5 72.5s-21.167 32.5 -36.5 42.5s-33.166 16.5 -53.499 19.5s-41.833 4.5 -64.5 4.5h-26v86h467l424 -1171l420 1171h454
v-86h-26c-23.333 0 -45.166 -1.66699 -65.499 -5s-38.166 -10.166 -53.499 -20.499s-27.333 -25.166 -36 -44.499s-13 -45 -13 -77v-996c0 -32 4.33301 -57.667 13 -77s20.667 -34.166 36 -44.499s33.166 -17.166 53.499 -20.499s42.166 -5 65.499 -5h26v-86h-545z" />
    <glyph glyph-name="N" unicode="N" horiz-adv-x="1563" 
d="M1165 0l-768.003 1180v-947c0 -32 4.5 -57.667 13.5 -77s21 -34.166 36 -44.499s32.833 -17.166 53.5 -20.499s42.334 -5 65.001 -5h27v-86h-514v86h26c23.333 0 45.166 1.66699 65.499 5s38.166 10.166 53.499 20.499s27.333 25.166 36 44.499s13 45 13 77v1004
c0 30 -4.5 54.167 -13.5 72.5s-21.167 32.5 -36.5 42.5s-33.166 16.5 -53.499 19.5s-41.833 4.5 -64.5 4.5h-26v86h375l733 -1132v907c0 30 -4.5 54.167 -13.5 72.5s-21.167 32.5 -36.5 42.5s-33.166 16.5 -53.499 19.5s-41.833 4.5 -64.5 4.5h-27v86h514v-86h-26
c-23.333 0 -45.166 -1.66699 -65.499 -5s-38.166 -10.166 -53.499 -20.499s-27.333 -25.166 -36 -44.499s-13 -45 -13 -77v-1229h-146z" />
    <glyph glyph-name="O" unicode="O" horiz-adv-x="1520" 
d="M1403 733c0 -112.667 -13.9971 -215.33 -41.9971 -307.997s-69.333 -172 -124 -238s-122 -117 -202 -153s-171.667 -54 -275 -54c-108.667 0 -203.334 18 -284.001 54s-147.667 87 -201 153s-93.333 145.5 -120 238.5s-40 196.167 -40 309.5s13.333 216.166 40 308.499
s66.667 171.166 120 236.499s120.666 115.833 201.999 151.5s176.333 53.5 285 53.5c103.333 0 194.666 -17.833 273.999 -53.5s146.333 -86.334 201 -152.001s96 -144.667 124 -237s42 -195.5 42 -309.5zM342.003 733.004c0 -101.333 7.5 -191.833 22.5 -271.5
s39.167 -147 72.5 -202s76.5 -97 129.5 -126s117.5 -43.5 193.5 -43.5s140.5 14.5 193.5 43.5s96 71 129 126s56.833 122.333 71.5 202s22 170.167 22 271.5s-7.33301 191.833 -22 271.5s-38.5 146.834 -71.5 201.501s-75.667 96.334 -128 125.001s-116.5 43 -192.5 43
s-140.667 -14.333 -194 -43s-96.833 -70.334 -130.5 -125.001s-58 -121.834 -73 -201.501s-22.5 -170.167 -22.5 -271.5z" />
    <glyph glyph-name="P" unicode="P" horiz-adv-x="1237" 
d="M78 0l0.00390625 86.002h26c23.333 0 45.166 1.66699 65.499 5s38.166 10.166 53.499 20.499s27.333 25.166 36 44.499s13 45 13 77v1004c0 30 -4.5 54.167 -13.5 72.5s-21.167 32.5 -36.5 42.5s-33.166 16.5 -53.499 19.5s-41.833 4.5 -64.5 4.5h-26v86h575
c86 0 160.667 -9.83301 224 -29.5s115.666 -48 156.999 -85s72.166 -81.833 92.499 -134.5s30.5 -112.334 30.5 -179.001c0 -60.667 -9.5 -119 -28.5 -175s-50.167 -105.5 -93.5 -148.5s-100 -77.333 -170 -103s-155.667 -38.5 -257 -38.5h-129v-346
c0 -30 4.5 -54.167 13.5 -72.5s21.167 -32.166 36.5 -41.499s33.166 -15.5 53.499 -18.5s41.833 -4.5 64.5 -4.5h68v-86h-637zM479.004 666.002h108.998c62 0 115 6.5 159 19.5s80 34 108 63s48.5 66.333 61.5 112s19.5 100.834 19.5 165.501
c0 57.333 -5.66699 107.166 -17 149.499s-29.666 77.5 -54.999 105.5s-58.166 48.833 -98.499 62.5s-89.5 20.5 -147.5 20.5h-139v-698z" />
    <glyph glyph-name="Q" unicode="Q" horiz-adv-x="1520" 
d="M1403 733c0 -100 -10.9971 -191.996 -32.9971 -275.996s-54.5 -158 -97.5 -222s-96 -116.833 -159 -158.5s-135.167 -69.834 -216.5 -84.501c6 -70 17.333 -128.5 34 -175.5s38 -84.667 64 -113s56.333 -48.5 91 -60.5s72.667 -18 114 -18h33v-96h-88
c-54 0 -107.833 7.16699 -161.5 21.5s-102.5 39 -146.5 74s-80.833 81.667 -110.5 140s-47.834 131.5 -54.501 219.5c-94 10 -175.833 34.833 -245.5 74.5s-127.5 92 -173.5 157s-80.5 141.333 -103.5 229s-34.5 184.5 -34.5 290.5c0 113.333 13.333 216.166 40 308.499
s66.667 171.166 120 236.499s120.666 115.833 201.999 151.5s176.333 53.5 285 53.5c103.333 0 194.666 -17.833 273.999 -53.5s146.333 -86.334 201 -152.001s96 -144.667 124 -237s42 -195.5 42 -309.5zM342.003 733.004c0 -101.333 7.5 -191.833 22.5 -271.5
s39.167 -147 72.5 -202s76.5 -97 129.5 -126s117.5 -43.5 193.5 -43.5s140.5 14.5 193.5 43.5s96 71 129 126s56.833 122.333 71.5 202s22 170.167 22 271.5s-7.33301 191.833 -22 271.5s-38.5 146.834 -71.5 201.501s-75.667 96.334 -128 125.001s-116.5 43 -192.5 43
s-140.667 -14.333 -194 -43s-96.833 -70.334 -130.5 -125.001s-58 -121.834 -73 -201.501s-22.5 -170.167 -22.5 -271.5z" />
    <glyph glyph-name="R" unicode="R" horiz-adv-x="1343" 
d="M1135 250c34.667 -54.667 68.334 -95.667 101.001 -123s70.667 -41 114 -41h6v-86h-29c-64 -0 -116.5 2.33301 -157.5 7s-75.833 13.667 -104.5 27s-53.167 32 -73.5 56s-42.166 55.333 -65.499 94l-277 461h-170v-422c0 -30 4.5 -54.167 13.5 -72.5
s21.167 -32.166 36.5 -41.499s33.166 -15.5 53.499 -18.5s41.833 -4.5 64.5 -4.5h27v-86h-596v86h26c22.667 0 44.167 1.5 64.5 4.5s38.166 9.16699 53.499 18.5s27.5 23.166 36.5 41.499s13.5 42.5 13.5 72.5v1014c0 30 -4.5 54.167 -13.5 72.5s-21.167 32.5 -36.5 42.5
s-33.166 16.5 -53.499 19.5s-41.833 4.5 -64.5 4.5h-26v86h551c177.333 0 309.333 -32.833 396 -98.5s130 -164.5 130 -296.5c0 -54.667 -8.83301 -102.5 -26.5 -143.5s-40.834 -76.5 -69.501 -106.5s-61 -55 -97 -75s-72 -36 -108 -48zM479 741l143.998 0.000976562
c60 0 110 6.66699 150 20s72 33.333 96 60s41.167 60 51.5 100s15.5 86.667 15.5 140c0 54.667 -5.66699 101.167 -17 139.5s-29.666 69.666 -54.999 93.999s-58.166 42 -98.499 53s-89.5 16.5 -147.5 16.5h-139v-623z" />
    <glyph glyph-name="S" unicode="S" horiz-adv-x="1114" 
d="M506 -20c-66.667 0 -125.505 7.00293 -176.505 21.0029s-93.667 33.5 -128 58.5s-60.166 55.333 -77.499 91s-26 74.834 -26 117.501c0 41.333 12.833 74.666 38.5 99.999s62.167 38 109.5 38c2 -42.667 8.5 -83.667 19.5 -123s27.5 -74 49.5 -104s50 -54 84 -72
s75 -27 123 -27c92 0 163.833 22.167 215.5 66.5s77.5 108.166 77.5 191.499c0 37.333 -5.33301 70.333 -16 99s-28.334 55.167 -53.001 79.5s-57.167 47.666 -97.5 69.999s-90.5 45.833 -150.5 70.5c-63.333 26 -118.666 53.833 -165.999 83.5s-86.666 62.667 -117.999 99
s-54.666 76.833 -69.999 121.5s-23 95 -23 151c0 58.667 11.167 111 33.5 157s53.5 84.833 93.5 116.5s87.333 55.834 142 72.501s114.334 25 179.001 25c61.333 0 115.666 -6.33301 162.999 -19s87.333 -29.667 120 -51s57.5 -45.833 74.5 -73.5s25.5 -56.5 25.5 -86.5
c0 -44 -14.5 -77.167 -43.5 -99.5s-68.167 -33.5 -117.5 -33.5c0 32 -3.83301 63.5 -11.5 94.5s-20.5 58.667 -38.5 83s-41.667 44.166 -71 59.499s-65.666 23 -108.999 23c-39.333 0 -74.5 -5.5 -105.5 -16.5s-57.167 -26.667 -78.5 -47s-37.666 -44.833 -48.999 -73.5
s-17 -60.667 -17 -96c0 -40.667 5.33301 -76.5 16 -107.5s28.5 -59 53.5 -84s57.833 -48.667 98.5 -71s90.667 -45.5 150 -69.5c60 -24.667 113.5 -50.667 160.5 -78s86.833 -57.833 119.5 -91.5s57.667 -71.334 75 -113.001s26 -88.834 26 -141.501
c0 -64.667 -11.833 -122.5 -35.5 -173.5s-57.5 -94.167 -101.5 -129.5s-97 -62.166 -159 -80.499s-131.333 -27.5 -208 -27.5z" />
    <glyph glyph-name="T" unicode="T" horiz-adv-x="1255" 
d="M729 233c0 -32 4.50391 -57.668 13.5039 -77.001s21 -34.166 36 -44.499s32.833 -17.166 53.5 -20.499s42.334 -5 65.001 -5h47v-86h-637v86h47c22.667 0 44.167 1.5 64.5 4.5s38.166 9.16699 53.499 18.5s27.5 23.166 36.5 41.499s13.5 42.5 13.5 72.5v1137h-196
c-30 0 -55.167 -4.5 -75.5 -13.5s-37 -21.167 -50 -36.5s-22.667 -33.166 -29 -53.499s-10.833 -41.833 -13.5 -64.5l-11 -88h-106l10 358h1153l10 -358h-106l-10 88c-2.66699 22.667 -7.33398 44.167 -14.001 64.5s-16.334 38.166 -29.001 53.499
s-29.334 27.5 -50.001 36.5s-46.334 13.5 -77.001 13.5h-199v-1127z" />
    <glyph glyph-name="U" unicode="U" horiz-adv-x="1468" 
d="M741 -20c-80.667 0 -153.001 8.49707 -217.001 25.4971s-118.167 44 -162.5 81s-78.166 84.667 -101.499 143s-35 129.166 -35 212.499v795c0 30 -4.5 54.167 -13.5 72.5s-21.167 32.5 -36.5 42.5s-33.166 16.5 -53.499 19.5s-41.833 4.5 -64.5 4.5h-26v86h596v-86h-27
c-22.667 0 -44.334 -1.66699 -65.001 -5s-38.5 -10.166 -53.5 -20.499s-27 -25.166 -36 -44.499s-13.5 -45 -13.5 -77v-799c0 -59.333 8.5 -109.833 25.5 -151.5s40.667 -75.5 71 -101.5s66.333 -45 108 -57s87.5 -18 137.5 -18c59.333 0 110.5 8 153.5 24
s78.667 38.167 107 66.5s49.333 62 63 101s20.5 81.833 20.5 128.5v815c0 30 -4.5 54.167 -13.5 72.5s-21.167 32.5 -36.5 42.5s-33.166 16.5 -53.499 19.5s-41.833 4.5 -64.5 4.5h-26v86h514v-86h-27c-22.667 0 -44.334 -1.66699 -65.001 -5s-38.5 -10.166 -53.5 -20.499
s-27 -25.166 -36 -44.499s-13.5 -45 -13.5 -77v-811c0 -68 -10.833 -129.167 -32.5 -183.5s-53.667 -100.333 -96 -138s-94.833 -66.5 -157.5 -86.5s-134.667 -30 -216 -30z" />
    <glyph glyph-name="V" unicode="V" horiz-adv-x="1382" 
d="M614 0l-442.004 1268c-7.33301 21.333 -15.333 39 -24 53s-18.667 25 -30 33s-24.333 13.667 -39 17s-32 5 -52 5h-27v86h563v-86h-47c-41.333 0 -72.166 -7.83301 -92.499 -23.5s-30.5 -40.5 -30.5 -74.5c0 -11.333 1.5 -23 4.5 -35s7.16699 -25.667 12.5 -41l225 -665
c20.667 -60.667 38.334 -119.5 53.001 -176.5s27.667 -110.167 39 -159.5c10.667 49.333 23.334 101.666 38.001 156.999s33.334 115 56.001 179l226 651c5.33301 16.667 9.66602 32.667 12.999 48s5 28.666 5 39.999c0 35.333 -11.167 60.833 -33.5 76.5
s-56.166 23.5 -101.499 23.5h-47v86h499v-86h-39c-20 0 -37.167 -2 -51.5 -6s-27.333 -11.833 -39 -23.5s-22.5 -27.834 -32.5 -48.501s-20.667 -47.667 -32 -81l-424 -1217h-150z" />
    <glyph glyph-name="W" unicode="W" horiz-adv-x="2144" 
d="M1180 1448l255.997 -887c19.333 -68 36.5 -133.167 51.5 -195.5s27.167 -117.166 36.5 -164.499c10 49.333 21.5 101.166 34.5 155.499s28.833 114.5 47.5 180.5l180 632l7 27c2.66699 10 5 20 7 30l5.5 28c1.66699 8.66699 2.5 16 2.5 22
c0 35.333 -11.167 60.833 -33.5 76.5s-56.166 23.5 -101.499 23.5h-47v86h500v-86h-39c-20 0 -37.5 -2 -52.5 -6s-28.5 -11.667 -40.5 -23s-23 -27.333 -33 -48s-20 -48 -30 -82l-346 -1217h-184l-334 1147l-313 -1147h-189l-375 1268c-6.66699 21.333 -14.167 39 -22.5 53
s-18.166 25 -29.499 33s-24.666 13.667 -39.999 17s-33 5 -53 5h-27v86h564v-86h-47c-41.333 0 -72.166 -7.83301 -92.499 -23.5s-30.5 -40.5 -30.5 -74.5c0 -11.333 1.66699 -23 5 -35l11 -41l188 -655l49 -182.5c15.333 -59.667 28.666 -114.167 39.999 -163.5
c10 53.333 21.833 111.5 35.5 174.5s29.5 127.5 47.5 193.5l244 879h148z" />
    <glyph glyph-name="X" unicode="X" horiz-adv-x="1352" 
d="M954 1317c0 12 -2.83301 21.835 -8.5 29.502s-13.334 13.667 -23.001 18s-21.167 7.33301 -34.5 9s-28 2.5 -44 2.5h-6v86h448v-86h-18c-20 0 -38.167 -2.33301 -54.5 -7s-32.166 -12.834 -47.499 -24.501s-31.166 -26.834 -47.499 -45.501s-34.166 -42 -53.499 -70
l-297 -428l377 -606c30 -40 58.333 -68.167 85 -84.5s53 -24.5 79 -24.5h26v-86h-553v86h11c81.333 0 122 22.667 122 68c0 7.33301 -0.833008 14.666 -2.5 21.999s-4.83398 16 -9.50098 26s-11.5 22.333 -20.5 37l-34.5 56l-203 326l-227 -336
c-6 -8.66699 -12 -18.5 -18 -29.5s-11.667 -22.5 -17 -34.5s-9.66602 -24.167 -12.999 -36.5s-5 -23.833 -5 -34.5c0 -23.333 10.833 -39.833 32.5 -49.5s55.167 -14.5 100.5 -14.5h6v-86h-488v86h13c24.667 0 46.167 2.5 64.5 7.5s35.333 13.167 51 24.5s31.167 26 46.5 44
s32.333 40.333 51 67l342 490l-338 549c-24.667 39.333 -52.5 67.166 -83.5 83.499s-61.833 24.5 -92.5 24.5h-27v86h555v-86h-6c-23.333 0 -42.666 -1.5 -57.999 -4.5s-27.333 -7.16699 -36 -12.5s-14.667 -11.666 -18 -18.999s-5 -15 -5 -23
c0 -7.33301 0.5 -14.333 1.5 -21s3.16699 -14.5 6.5 -23.5s8.16602 -19.5 14.499 -31.5s15.166 -27 26.499 -45l185 -299l194 295c15.333 23.333 27.666 45.333 36.999 66s14 40.334 14 59.001z" />
    <glyph glyph-name="Y" unicode="Y" horiz-adv-x="1280" 
d="M326 0v85.9961h47c22.667 0 44.167 1.5 64.5 4.5s38.166 9.16699 53.499 18.5s27.5 23.166 36.5 41.499s13.5 42.5 13.5 72.5v387l-379 658c-11.333 19.333 -22 35.833 -32 49.5s-20.5 24.834 -31.5 33.501s-23.167 15 -36.5 19s-28.666 6 -45.999 6h-26v86h563v-86h-76
c-18.667 0 -33.834 -1.66699 -45.501 -5s-20.834 -8 -27.501 -14s-11.167 -13 -13.5 -21s-3.5 -16.333 -3.5 -25c0 -19.333 4.16699 -38.666 12.5 -57.999s16.5 -36.333 24.5 -51l151 -274c24 -42 44.333 -83.5 61 -124.5s30.667 -77.5 42 -109.5c6 14.667 13.5 31 22.5 49
l30 57.5l34.5 63l36 64.5l131 235c13.333 23.333 22.833 45.5 28.5 66.5s8.5 39.833 8.5 56.5c0 30 -10.667 52.5 -32 67.5s-51.666 22.5 -90.999 22.5h-60v86h500v-86h-24c-14.667 0 -28.5 -2.5 -41.5 -7.5s-26.167 -13.667 -39.5 -26s-27.166 -28.666 -41.499 -48.999
s-30.166 -45.833 -47.499 -76.5l-344 -607v-377c0 -32 4.33301 -57.667 13 -77s20.667 -34.166 36 -44.499s33.166 -17.166 53.499 -20.499s41.833 -5 64.5 -5h48v-86h-637z" />
    <glyph glyph-name="Z" unicode="Z" horiz-adv-x="1212" 
d="M1094 1378l-770.002 -1276h516c30.667 0 56.334 4.5 77.001 13.5s37.334 21.167 50.001 36.5s22.334 33.166 29.001 53.499s11.334 41.833 14.001 64.5l10 88h106l-10 -358h-1042v82l768 1278h-445c-30 0 -55.167 -4.5 -75.5 -13.5s-36.833 -21.167 -49.5 -36.5
s-22.334 -33.166 -29.001 -53.499s-11.334 -41.833 -14.001 -64.5l-10 -88h-106l10 358h971v-84z" />
    <glyph glyph-name="bracketleft" unicode="[" horiz-adv-x="735" 
d="M205 -262v1818h457v-86h-89c-22.667 0 -44.167 -1.66699 -64.5 -5s-38.166 -10.166 -53.499 -20.499s-27.333 -25.166 -36 -44.499s-13 -45 -13 -77v-1352c0 -32 4.33301 -57.667 13 -77s20.667 -34.166 36 -44.499s33.166 -17.166 53.499 -20.499s41.833 -5 64.5 -5h89
v-86h-457z" />
    <glyph glyph-name="backslash" unicode="\" horiz-adv-x="590" 
d="M0 1556h119l471 -1804h-121z" />
    <glyph glyph-name="bracketright" unicode="]" horiz-adv-x="737" 
d="M76 -262v86.0039h88c23.333 0 45.166 1.66699 65.499 5s38 10.166 53 20.499s27 25.166 36 44.499s13.5 45 13.5 77v1352c0 32 -4.5 57.667 -13.5 77s-21 34.166 -36 44.499s-32.667 17.166 -53 20.499s-42.166 5 -65.499 5h-88v86h456v-1818h-456z" />
    <glyph glyph-name="asciicircum" unicode="^" 
d="M535 1462h71l432 -917h-137l-332 729l-327 -729h-138z" />
    <glyph glyph-name="underscore" unicode="_" horiz-adv-x="940" 
d="M950 -291h-960v121h960v-121z" />
    <glyph glyph-name="grave" unicode="`" horiz-adv-x="1182" 
d="M791 1241l-78 -0.00195312c-27.333 18.667 -57 41.834 -89 69.501s-63 56.167 -93 85.5s-57.333 57.5 -82 84.5s-43.334 49.5 -56.001 67.5v21h219c10.667 -22.667 23.167 -47.5 37.5 -74.5s29.5 -54 45.5 -81s32.333 -53.167 49 -78.5s32.334 -47.666 47.001 -66.999
v-27z" />
    <glyph glyph-name="a" unicode="a" horiz-adv-x="1153" 
d="M301 297c0 -64 13.498 -111.831 40.498 -143.498s68.833 -47.5 125.5 -47.5c41.333 0 78.833 6.66699 112.5 20s62.334 32.333 86.001 57s41.834 54.667 54.501 90s19 74.666 19 117.999v166l-131 -6c-58 -2.66699 -106.5 -9.83398 -145.5 -21.501s-70.5 -28 -94.5 -49
s-41.167 -46.833 -51.5 -77.5s-15.5 -66 -15.5 -106zM548.998 1016c-39.333 0 -71.168 -5.5 -95.501 -16.5s-43.333 -26.5 -57 -46.5s-22.834 -43.667 -27.501 -71s-7 -57 -7 -89c-56.667 0 -99.834 9.66699 -129.501 29s-44.5 52.666 -44.5 99.999
c0 35.333 9.66699 65.333 29 90s45.833 44.834 79.5 60.501s72.834 27.167 117.501 34.5s92.334 11 143.001 11c62.667 0 117.334 -6.16699 164.001 -18.5s85.667 -32.5 117 -60.5s54.833 -64.5 70.5 -109.5s23.5 -100.167 23.5 -165.5v-531
c0 -28.667 2.33301 -52.334 7 -71.001s12 -33.667 22 -45s23.167 -19.333 39.5 -24s35.833 -7 58.5 -7h6v-86h-277l-32 176h-17c-21.333 -28.667 -42 -55 -62 -79s-42 -44.667 -66 -62s-51.167 -30.833 -81.5 -40.5s-66.833 -14.5 -109.5 -14.5
c-45.333 0 -87.5 6.5 -126.5 19.5s-72.667 33 -101 60s-50.5 61 -66.5 102s-24 89.5 -24 145.5c0 108.667 38.667 189.334 116 242.001s194.333 81.334 351 86.001l170 6v123c0 36.667 -2 70.5 -6 101.5s-12.667 57.667 -26 80s-32.5 39.666 -57.5 51.999
s-58.5 18.5 -100.5 18.5z" />
    <glyph glyph-name="b" unicode="b" horiz-adv-x="1257" 
d="M1145 551c0 -98.667 -9.16309 -184.001 -27.4961 -256.001s-45.166 -131.333 -80.499 -178s-79 -81.167 -131 -103.5s-111.667 -33.5 -179 -33.5c-39.333 0 -75 4.33301 -107 13s-60.833 21 -86.5 37s-48.334 35 -68.001 57s-36.834 46.333 -51.501 73h-13l-36 -160h-328
v86h16c23.333 0 45.166 1.66699 65.499 5s38 10.166 53 20.499s27 25.166 36 44.499s13.5 45 13.5 77v1098c0 30 -4.5 54.167 -13.5 72.5s-21.167 32.5 -36.5 42.5s-33.166 16.5 -53.499 19.5s-41.833 4.5 -64.5 4.5h-16v86h377v-376
c0 -23.333 -0.333008 -50.166 -1 -80.499s-1.66699 -59.5 -3 -87.5l-4 -99h8c15.333 31.333 32.666 59.666 51.999 84.999s41.666 46.833 66.999 64.5s54 31.334 86 41.001s68 14.5 108 14.5c67.333 0 127 -11.167 179 -33.5s95.667 -56.666 131 -102.999
s62.166 -105.166 80.499 -176.499s27.5 -156 27.5 -254zM692.004 986.999c-53.333 0 -97.8359 -8.83301 -133.503 -26.5s-64.167 -44.5 -85.5 -80.5s-36.5 -81.333 -45.5 -136s-13.5 -119 -13.5 -193c0 -71.333 4.5 -134.333 13.5 -189s24.333 -100.667 46 -138
s50.334 -65.5 86.001 -84.5s80.5 -28.5 134.5 -28.5c45.333 0 83.833 9.5 115.5 28.5s57.667 47.167 78 84.5s35.166 83.5 44.499 138.5s14 118.5 14 190.5c0 72.667 -4.66699 136.167 -14 190.5s-24.166 99.5 -44.499 135.5s-46.666 63 -78.999 81s-71.166 27 -116.499 27z
" />
    <glyph glyph-name="c" unicode="c" horiz-adv-x="1008" 
d="M580 -20c-68 0 -130.665 10.4922 -187.998 31.4922s-106.666 54.167 -147.999 99.5s-73.5 103.5 -96.5 174.5s-34.5 156.833 -34.5 257.5c0 109.333 11.5 200.833 34.5 274.5s55 132.834 96 177.501s89.333 76.334 145 95.001s115.834 28 180.501 28
c42.667 0 85.167 -4.16699 127.5 -12.5s80.5 -21.166 114.5 -38.499s61.667 -39.166 83 -65.499s32 -57.166 32 -92.499c0 -47.333 -15.333 -80.666 -46 -99.999s-76.334 -29 -137.001 -29c0 32 -2.66699 62.333 -8 91s-14.5 53.834 -27.5 75.501s-30.667 38.667 -53 51
s-50.833 18.5 -85.5 18.5c-39.333 0 -74.833 -7.33301 -106.5 -22s-58.834 -40 -81.501 -76s-40 -84.333 -52 -145s-18 -136.667 -18 -228c0 -145.333 24.167 -253.666 72.5 -324.999s127.5 -107 237.5 -107c63.333 0 118.666 13.333 165.999 40s82.666 61 105.999 103
c10 -8 18.333 -18.667 25 -32s10 -29.333 10 -48c0 -23.333 -7.33301 -46.666 -22 -69.999s-36.5 -44.333 -65.5 -63s-65.167 -33.834 -108.5 -45.501s-94 -17.5 -152 -17.5z" />
    <glyph glyph-name="d" unicode="d" horiz-adv-x="1257" 
d="M1036 225c0 -30 4.5 -54.1631 13.5 -72.4961s21.167 -32.5 36.5 -42.5s33.166 -16.5 53.499 -19.5s41.833 -4.5 64.5 -4.5h17v-86h-347l-22 184h-8c-15.333 -31.333 -32.833 -59.5 -52.5 -84.5s-42.167 -46.333 -67.5 -64s-54 -31.334 -86 -41.001s-68 -14.5 -108 -14.5
c-67.333 0 -127 11.167 -179 33.5s-95.667 56.666 -131 102.999s-62 105.166 -80 176.499s-27 156 -27 254c0 98.667 9 184 27 256s44.667 131.333 80 178s79 81.167 131 103.5s111.667 33.5 179 33.5c39.333 0 75 -4.33301 107 -13s60.833 -21 86.5 -37s48.5 -35 68.5 -57
s37.333 -46.333 52 -73h12c-2 33.333 -4 64.666 -6 93.999l-4 75.5c-1.33301 25 -2 43.5 -2 55.5v168c0 30 -4.5 54.167 -13.5 72.5s-21.167 32.5 -36.5 42.5s-33.166 16.5 -53.499 19.5s-41.833 4.5 -64.5 4.5h-17v86h377v-1331zM565 111.004
c53.333 0 97.8311 8.83203 133.498 26.499s64.334 44.5 86.001 80.5s37 81.333 46 136s13.5 119 13.5 193c0 71.333 -4.5 134.333 -13.5 189s-24.333 100.5 -46 137.5s-50.5 65.167 -86.5 84.5s-81 29 -135 29c-44.667 0 -83 -9.66699 -115 -29
s-58.167 -47.666 -78.5 -84.999s-35.166 -83.5 -44.499 -138.5s-14 -118.167 -14 -189.5c0 -145.333 19.667 -254 59 -326s104.333 -108 195 -108z" />
    <glyph glyph-name="e" unicode="e" horiz-adv-x="1096" 
d="M563 1008c-76 0 -134.502 -30.832 -175.502 -92.499s-65.167 -151.834 -72.5 -270.501h471c0 54 -4 103.333 -12 148s-20.667 83 -38 115s-40.166 56.667 -68.499 74s-63.166 26 -104.499 26zM587.998 -19.999c-74 0 -140.5 12.502 -199.5 37.502
s-108.833 61.5 -149.5 109.5s-71.834 106.833 -93.501 176.5s-32.5 148.834 -32.5 237.501c0 191.333 39.333 335.333 118 432s190.667 145 336 145c66 0 125.333 -10.333 178 -31s97.334 -51.5 134.001 -92.5s64.834 -92 84.501 -153s29.5 -131.833 29.5 -212.5v-94h-682
c1.33301 -74.667 8.83301 -138.834 22.5 -192.501s33.334 -97.834 59.001 -132.501s57.167 -60.167 94.5 -76.5s80.333 -24.5 129 -24.5c35.333 0 68.166 4 98.499 12s57.833 18.667 82.5 32s46.5 28.5 65.5 45.5s34.5 34.833 46.5 53.5
c9.33301 -4 18.166 -12.333 26.499 -25s12.5 -27.667 12.5 -45c0 -20.667 -7.33301 -42.834 -22 -66.501s-37 -45.5 -67 -65.5s-67.5 -36.667 -112.5 -50s-97.833 -20 -158.5 -20z" />
    <glyph glyph-name="f" unicode="f" horiz-adv-x="756" 
d="M688 86l-0.00195312 -86.002h-633v86h27c23.333 0 45.166 1.66699 65.499 5s38 10.166 53 20.499s27 25.166 36 44.499s13.5 45 13.5 77v768h-187v97h187v102c0 61.333 8.33301 115.333 25 162s40.667 86 72 118s69.333 56.167 114 72.5s95 24.5 151 24.5
c53.333 0 98.333 -3.5 135 -10.5s66.167 -16.833 88.5 -29.5s38.5 -27.667 48.5 -45s15 -36.666 15 -57.999c0 -18.667 -4.16699 -35.167 -12.5 -49.5s-20 -26.333 -35 -36s-32.667 -17 -53 -22s-42.833 -7.5 -67.5 -7.5c0 20.667 -2.16699 40.834 -6.5 60.501
s-11.666 37.167 -21.999 52.5s-24.166 27.666 -41.499 36.999s-39 14 -65 14c-29.333 0 -53.833 -5.66699 -73.5 -17s-35.5 -28.166 -47.5 -50.499s-20.5 -49.833 -25.5 -82.5s-7.5 -70.667 -7.5 -114v-121h289v-97h-289v-768c0 -32 4.5 -57.667 13.5 -77
s21 -34.166 36 -44.499s32.833 -17.166 53.5 -20.499s42.334 -5 65.001 -5h78z" />
    <glyph glyph-name="g" unicode="g" horiz-adv-x="1102" 
d="M1077 1055c0 -14.667 -2.16504 -28.498 -6.49805 -41.498s-10.833 -24.333 -19.5 -34s-19.834 -17.334 -33.501 -23.001s-29.834 -8.5 -48.501 -8.5c0 8 -1 16 -3 24s-5.5 15.5 -10.5 22.5s-11.833 12.667 -20.5 17s-20 6.5 -34 6.5c-17.333 0 -33 -2 -47 -6
s-27.667 -10.333 -41 -19c23.333 -28.667 42.5 -62.5 57.5 -101.5s22.5 -87.833 22.5 -146.5c0 -50.667 -7.66699 -97.5 -23 -140.5s-38.166 -80.167 -68.499 -111.5s-68.666 -55.833 -114.999 -73.5s-100.5 -26.5 -162.5 -26.5c-8 0 -17 0.166992 -27 0.5l-30 1
c-10 0.333008 -19.333 1 -28 2l-21 2.5c-13.333 -6.66699 -26 -14 -38 -22s-22.5 -17 -31.5 -27s-16.167 -21.333 -21.5 -34s-8 -26.667 -8 -42c0 -16.667 3.16699 -30 9.5 -40s15.166 -17.833 26.499 -23.5s24.833 -9.33398 40.5 -11.001s32.5 -2.5 50.5 -2.5h232
c61.333 0 113.333 -7.66699 156 -23s77.5 -36.5 104.5 -63.5s46.667 -59.333 59 -97s18.5 -78.5 18.5 -122.5c0 -58.667 -10.833 -111.667 -32.5 -159s-54.834 -87.5 -99.501 -120.5s-101.167 -58.5 -169.5 -76.5s-148.833 -27 -241.5 -27
c-142.667 0 -249.334 26.333 -320.001 79s-106 126 -106 220c0 40 7 75 21 105s32.833 55.667 56.5 77s50.834 38.666 81.501 51.999s63 23 97 29c-14 6 -27.667 14 -41 24s-25.333 22 -36 36s-19.334 30 -26.001 48s-10 38 -10 60c0 40.667 10.667 75.834 32 105.501
s55.333 58.5 102 86.5c-29.333 12 -55.5 28.5 -78.5 49.5s-42.333 45 -58 72s-27.667 56.5 -36 88.5s-12.5 65 -12.5 99c0 59.333 8 112.333 24 159s40 86.334 72 119.001s72 57.667 120 75s104.333 26 169 26c24.667 0 49 -1.83301 73 -5.5s46.167 -8.66699 66.5 -15
s38.666 -13.5 54.999 -21.5s29.5 -16.333 39.5 -25c10 10.667 21.667 22.5 35 35.5s28.333 25 45 36s34.834 20.167 54.501 27.5s40.834 11 63.501 11c20.667 0 38.5 -2.83301 53.5 -8.5s27.5 -13.334 37.5 -23.001s17.5 -21 22.5 -34s7.5 -26.5 7.5 -40.5z
M213.002 -179.998c0 -30 4 -57.999 12 -83.999s22 -48.333 42 -67s47 -33.334 81 -44.001s77 -16 129 -16c73.333 0 133.833 6.16699 181.5 18.5s85.5 29.5 113.5 51.5s47.667 48.167 59 78.5s17 63.5 17 99.5c0 31.333 -4.5 57.166 -13.5 77.499s-22.333 36.333 -40 48
s-39.5 19.834 -65.5 24.501s-56 7 -90 7h-201c-28.667 0 -56.5 -2.5 -83.5 -7.5s-51 -14.5 -72 -28.5s-37.833 -33.667 -50.5 -59s-19 -58.333 -19 -99zM332.002 745.003c0 -87.333 14.5 -151.333 43.5 -192s76.5 -61 142.5 -61c33.333 0 61.5 5 84.5 15
s41.833 25.333 56.5 46s25.167 47.167 31.5 79.5s9.5 70.833 9.5 115.5c0 92 -14 160 -42 204s-75.333 66 -142 66c-66 0 -113.167 -22.5 -141.5 -67.5s-42.5 -113.5 -42.5 -205.5z" />
    <glyph glyph-name="h" unicode="h" horiz-adv-x="1300" 
d="M588 86l0.00292969 -86.0029h-551v86h16c23.333 0 45.166 1.66699 65.499 5s38 10.166 53 20.499s27 25.166 36 44.499s13.5 45 13.5 77v1098c0 30 -4.5 54.167 -13.5 72.5s-21.167 32.5 -36.5 42.5s-33.166 16.5 -53.499 19.5s-41.833 4.5 -64.5 4.5h-16v86h377v-450
c0 -18.667 -0.333008 -38.167 -1 -58.5s-1.66699 -39.166 -3 -56.499l-4 -59h10c61.333 124 161.666 186 300.999 186c58 0 109.5 -7.83301 154.5 -23.5s82.833 -39.667 113.5 -72s54 -73.833 70 -124.5s24 -111 24 -181v-484c0 -32 4 -57.667 12 -77s19 -34.166 33 -44.499
s30.667 -17.166 50 -20.499s40.333 -5 63 -5h6v-86h-356v707c0 44.667 -4 84.334 -12 119.001s-20.833 64 -38.5 88s-40.834 42.167 -69.501 54.5s-63.667 18.5 -105 18.5c-42.667 0 -79.5 -7.83301 -110.5 -23.5s-56.667 -38 -77 -67s-35.5 -64 -45.5 -105
s-15 -86.5 -15 -136.5v-432c0 -30 4.5 -54.167 13.5 -72.5s21.167 -32.166 36.5 -41.499s33.166 -15.5 53.499 -18.5s41.833 -4.5 64.5 -4.5h6z" />
    <glyph glyph-name="i" unicode="i" horiz-adv-x="655" 
d="M74 86c22.667 0 44.166 1.49902 64.499 4.49902s38.166 9.16699 53.499 18.5s27.5 23.166 36.5 41.499s13.5 42.5 13.5 72.5v649c0 30 -4.5 54.167 -13.5 72.5s-21.167 32.5 -36.5 42.5s-33.166 16.667 -53.499 20s-41.833 5 -64.5 5h-6v86h366v-865
c0 -32 4.5 -57.667 13.5 -77s21 -34.166 36 -44.499s32.833 -17.166 53.5 -20.499s42.334 -5 65.001 -5h27v-86h-582v86h27zM212.999 1430c0 24 3 44 9 60s14.333 29 25 39s23 17 37 21s29.333 6 46 6c16 0 31 -2 45 -6s26.167 -11 36.5 -21s18.666 -23 24.999 -39
s9.5 -36 9.5 -60s-3.16699 -44 -9.5 -60s-14.666 -29 -24.999 -39s-22.5 -17.167 -36.5 -21.5s-29 -6.5 -45 -6.5c-16.667 0 -32 2.16699 -46 6.5s-26.333 11.5 -37 21.5s-19 23 -25 39s-9 36 -9 60z" />
    <glyph glyph-name="j" unicode="j" horiz-adv-x="614" 
d="M414 1098l-0.00292969 -1114c0 -92 -10 -168.5 -30 -229.5s-48 -109.667 -84 -146s-78.833 -62.166 -128.5 -77.499s-104.167 -23 -163.5 -23h-33v97h15c36.667 0 69.334 6.16699 98.001 18.5s52.834 33 72.501 62s34.667 67.667 45 116s15.5 108.5 15.5 180.5v890
c0 30 -4.5 54.167 -13.5 72.5s-21.167 32.5 -36.5 42.5s-33.166 16.667 -53.499 20s-41.833 5 -64.5 5h-6v86h367zM192.997 1430c0 24 3 44 9 60s14.167 29 24.5 39s22.666 17 36.999 21s29.5 6 45.5 6s31.167 -2 45.5 -6s26.666 -11 36.999 -21s18.666 -23 24.999 -39
s9.5 -36 9.5 -60s-3.16699 -44 -9.5 -60s-14.666 -29 -24.999 -39s-22.666 -17.167 -36.999 -21.5s-29.5 -6.5 -45.5 -6.5s-31.167 2.16699 -45.5 6.5s-26.666 11.5 -36.999 21.5s-18.5 23 -24.5 39s-9 36 -9 60z" />
    <glyph glyph-name="k" unicode="k" horiz-adv-x="1198" 
d="M694 659l273 -404.999c35.333 -54.667 70.5 -96.334 105.5 -125.001s75.5 -43 121.5 -43h6v-86h-29c-59.333 -0 -108.166 1.83301 -146.499 5.5s-71.5 12.334 -99.5 26.001s-53.667 33.667 -77 60s-49.333 62.166 -78 107.499l-205 321l-151 -112v-185
c0 -30 4.5 -54.167 13.5 -72.5s21.167 -32.166 36.5 -41.499s33.166 -15.5 53.499 -18.5s41.833 -4.5 64.5 -4.5h6v-86h-551v86h16c23.333 0 45.166 1.66699 65.499 5s38 10.166 53 20.499s27 25.166 36 44.499s13.5 45 13.5 77v1098c0 30 -4.5 54.167 -13.5 72.5
s-21.167 32.5 -36.5 42.5s-33.166 16.5 -53.499 19.5s-41.833 4.5 -64.5 4.5h-16v86h377v-790c0 -18.667 -0.333008 -42.5 -1 -71.5s-1.66699 -57.5 -3 -85.5l-4 -101l256 280c22 24.667 40.167 46.334 54.5 65.001s25.833 35 34.5 49s14.667 26.5 18 37.5s5 21.5 5 31.5
c0 17.333 -8.16699 28.5 -24.5 33.5s-41.5 7.5 -75.5 7.5v86h452v-86c-47.333 0 -93.833 -16.667 -139.5 -50s-95.167 -80.333 -148.5 -141z" />
    <glyph glyph-name="l" unicode="l" horiz-adv-x="635" 
d="M53 86c23.333 0 45.168 1.66699 65.501 5s38 10.166 53 20.499s27 25.166 36 44.499s13.5 45 13.5 77v1098c0 30 -4.5 54.167 -13.5 72.5s-21.167 32.5 -36.5 42.5s-33.166 16.5 -53.499 19.5s-41.833 4.5 -64.5 4.5h-26v86h387v-1323c0 -32 4.33301 -57.667 13 -77
s20.667 -34.166 36 -44.499s33.166 -17.166 53.499 -20.499s42.166 -5 65.499 -5h26v-86h-581v86h26z" />
    <glyph glyph-name="m" unicode="m" horiz-adv-x="1935" 
d="M608 86l-0.00195312 -86.0029h-551v86h27c23.333 0 44.666 1.66699 63.999 5s36 10.166 50 20.499s24.833 25.166 32.5 44.499s11.5 45 11.5 77v639c0 30 -4 54.167 -12 72.5s-19 32.5 -33 42.5s-30.667 16.667 -50 20s-40.333 5 -63 5h-6v86h321l27 -166h10
c20.667 38 42.334 69.167 65.001 93.5s46.834 43.333 72.501 57s52.667 23 81 28s58.5 7.5 90.5 7.5c33.333 0 65 -3.33301 95 -10s57.833 -17.334 83.5 -32.001s48.667 -33.834 69 -57.501s36.833 -52.5 49.5 -86.5h17c20.667 38 43 69.167 67 93.5s49.5 43.333 76.5 57
s55.333 23 85 28s60.5 7.5 92.5 7.5c52 0 98.667 -7.83301 140 -23.5s76.333 -39.667 105 -72s50.667 -73.833 66 -124.5s23 -111 23 -181v-484c0 -32 4 -57.667 12 -77s19 -34.166 33 -44.499s30.667 -17.166 50 -20.499s40.333 -5 63 -5h6v-86h-356v707
c0 44.667 -3.83301 84.334 -11.5 119.001s-20 64 -37 88s-39.167 42.167 -66.5 54.5s-60.666 18.5 -99.999 18.5c-42.667 0 -78.5 -8.16699 -107.5 -24.5s-52.5 -38.5 -70.5 -66.5s-30.833 -60.333 -38.5 -97s-11.5 -75.667 -11.5 -117v-449c0 -32 4 -57.667 12 -77
s19 -34.166 33 -44.499s30.667 -17.166 50 -20.499s40.333 -5 63 -5h6v-86h-356v707c0 44.667 -3.83301 84.334 -11.5 119.001s-20 64 -37 88s-39.167 42.167 -66.5 54.5s-60.666 18.5 -99.999 18.5c-44.667 0 -82.167 -9 -112.5 -27s-54.833 -42.333 -73.5 -73
s-32 -66 -40 -106s-12 -82 -12 -126v-432c0 -30 4.5 -54.167 13.5 -72.5s21.167 -32.166 36.5 -41.499s33.166 -15.5 53.499 -18.5s41.833 -4.5 64.5 -4.5h6z" />
    <glyph glyph-name="n" unicode="n" horiz-adv-x="1321" 
d="M608 86v-86.002h-551v86h17c23.333 0 45.166 1.66699 65.499 5s38 10.166 53 20.499s27 25.166 36 44.499s13.5 45 13.5 77v639c0 30 -4.5 54.167 -13.5 72.5s-21.167 32.5 -36.5 42.5s-33.166 16.667 -53.499 20s-41.833 5 -64.5 5h-6v86h331l27 -166h10
c21.333 38 43.833 69.167 67.5 93.5s48.667 43.333 75 57s54.333 23 84 28s60.834 7.5 93.501 7.5c54 0 102.167 -7.83301 144.5 -23.5s78.333 -39.667 108 -72s52.334 -73.833 68.001 -124.5s23.5 -111 23.5 -181v-484c0 -32 3.83301 -57.667 11.5 -77
s18.5 -34.166 32.5 -44.499s30.667 -17.166 50 -20.499s40.333 -5 63 -5h7v-86h-357v707c0 44.667 -4 84.334 -12 119.001s-20.833 64 -38.5 88s-40.834 42.167 -69.501 54.5s-63.667 18.5 -105 18.5c-46.667 0 -85.834 -9 -117.501 -27s-57.167 -42.333 -76.5 -73
s-33.166 -66 -41.499 -106s-12.5 -82 -12.5 -126v-432c0 -30 4.5 -54.167 13.5 -72.5s21.167 -32.166 36.5 -41.499s33.166 -15.5 53.499 -18.5s41.833 -4.5 64.5 -4.5h6z" />
    <glyph glyph-name="o" unicode="o" horiz-adv-x="1182" 
d="M1069 551c0 -192.667 -40.833 -335.998 -122.5 -429.998s-201.167 -141 -358.5 -141c-74 0 -140.333 11.667 -199 35s-108.5 58.666 -149.5 105.999s-72.333 106.833 -94 178.5s-32.5 155.5 -32.5 251.5c0 191.333 40.5 333.666 121.5 426.999s200.833 140 359.5 140
c74 0 140.333 -11.5 199 -34.5s108.5 -58 149.5 -105s72.333 -106 94 -177s32.5 -154.5 32.5 -250.5zM311 551.002c0 -76 5 -143 15 -201s26.167 -106.5 48.5 -145.5s51.333 -68.5 87 -88.5s79.167 -30 130.5 -30s94.666 10 129.999 30s64 49.5 86 88.5
s37.833 87.5 47.5 145.5s14.5 125 14.5 201s-5 142.667 -15 200s-26 105.166 -48 143.499s-50.833 67.166 -86.5 86.499s-79.167 29 -130.5 29s-94.666 -9.66699 -129.999 -29s-64 -48.166 -86 -86.499s-38 -86.166 -48 -143.499s-15 -124 -15 -200z" />
    <glyph glyph-name="p" unicode="p" horiz-adv-x="1257" 
d="M692 987c-53.333 0 -97.8359 -8.83301 -133.503 -26.5s-64.167 -44.5 -85.5 -80.5s-36.5 -81.333 -45.5 -136s-13.5 -119 -13.5 -193c0 -71.333 4.5 -134.333 13.5 -189s24.333 -100.667 46 -138s50.334 -65.5 86.001 -84.5s80.5 -28.5 134.5 -28.5
c45.333 0 83.833 9.5 115.5 28.5s57.667 47.167 78 84.5s35.166 83.5 44.499 138.5s14 118.5 14 190.5c0 72.667 -4.66699 136.167 -14 190.5s-24.166 99.5 -44.499 135.5s-46.666 63 -78.999 81s-71.166 27 -116.499 27zM1145 551c0 -98.667 -9.15918 -184 -27.4922 -256
s-45.166 -131.333 -80.499 -178s-79 -81.167 -131 -103.5s-111.667 -33.5 -179 -33.5c-39.333 0 -75 4.33301 -107 13s-60.833 21 -86.5 37s-48.334 35 -68.001 57s-36.834 46.333 -51.501 73h-8c1.33301 -35.333 2.66602 -68.333 3.99902 -99
c0.666992 -12.667 1.16699 -25.834 1.5 -39.501s0.666016 -26.5 0.999023 -38.5s0.666016 -22.833 0.999023 -32.5s0.5 -17.167 0.5 -22.5v-196c0 -30 4.5 -54.167 13.5 -72.5s21.167 -32.333 36.5 -42s33.166 -16 53.499 -19s41.833 -4.5 64.5 -4.5h6v-86h-551v86h16
c23.333 0 45.166 1.66699 65.499 5s38 10.166 53 20.499s27 25.333 36 45s13.5 45.5 13.5 77.5v1130c0 30 -4.5 54.167 -13.5 72.5s-21.167 32.5 -36.5 42.5s-33.166 16.667 -53.499 20s-41.833 5 -64.5 5h-26v86h358l21 -185h8c15.333 31.333 32.666 59.666 51.999 84.999
s41.666 46.833 66.999 64.5s54 31.334 86 41.001s68 14.5 108 14.5c67.333 0 127 -11.167 179 -33.5s95.667 -56.666 131 -102.999s62.166 -105.166 80.499 -176.499s27.5 -156 27.5 -254z" />
    <glyph glyph-name="q" unicode="q" horiz-adv-x="1257" 
d="M1221 -492l-612.997 0.00390625v86h68c23.333 0 45.166 1.66699 65.499 5s38 10.166 53 20.499s27 25.333 36 45s13.5 45.5 13.5 77.5v176c0 23.333 0.333008 50.166 1 80.499s1.66699 59.5 3 87.5l4 98h-8c-15.333 -31.333 -32.833 -59.5 -52.5 -84.5
s-42.167 -46.333 -67.5 -64s-54 -31.334 -86 -41.001s-68 -14.5 -108 -14.5c-67.333 0 -127 11.167 -179 33.5s-95.667 56.666 -131 102.999s-62 105.166 -80 176.499s-27 156 -27 254c0 98.667 9 184 27 256s44.667 131.333 80 178s79 81.167 131 103.5
s111.667 33.5 179 33.5c39.333 0 75 -4.33301 107 -13s60.833 -21 86.5 -37s48.5 -35 68.5 -57s37.333 -46.333 52 -73h12l37 160h328v-86h-17c-22.667 0 -44.334 -1.66699 -65.001 -5s-38.5 -10.166 -53.5 -20.499s-27 -25.333 -36 -45s-13.5 -45.5 -13.5 -77.5v-1130
c0 -30 4.5 -54.167 13.5 -72.5s21.167 -32.5 36.5 -42.5s33.166 -16.667 53.499 -20s41.833 -5 64.5 -5h17v-86zM565.003 111.004c53.333 0 97.8311 8.83203 133.498 26.499s64.334 44.5 86.001 80.5s37 81.333 46 136s13.5 119 13.5 193c0 71.333 -4.5 134.333 -13.5 189
s-24.333 100.5 -46 137.5s-50.5 65.167 -86.5 84.5s-81 29 -135 29c-44.667 0 -83 -9.66699 -115 -29s-58.167 -47.666 -78.5 -84.999s-35.166 -83.5 -44.499 -138.5s-14 -118.167 -14 -189.5c0 -145.333 19.667 -254 59 -326s104.333 -108 195 -108z" />
    <glyph glyph-name="r" unicode="r" horiz-adv-x="965" 
d="M659 0l-591 0.00195312v86h6c23.333 0 45.166 1.66699 65.499 5s38 10.166 53 20.499s27 25.166 36 44.499s13.5 45 13.5 77v639c0 30 -4.5 54.167 -13.5 72.5s-21.167 32.5 -36.5 42.5s-33.166 16.667 -53.499 20s-41.833 5 -64.5 5h-6v86h315l39 -203h10
c13.333 30.667 27 59.5 41 86.5s31.167 50.667 51.5 71s45.5 36.333 75.5 48s67.667 17.5 113 17.5c74.667 0 130.167 -13 166.5 -39s54.5 -62.667 54.5 -110c0 -21.333 -3.5 -41 -10.5 -59s-18.167 -33.5 -33.5 -46.5s-35 -23 -59 -30s-53.333 -10.5 -88 -10.5
c0 56.667 -8 97.5 -24 122.5s-44 37.5 -84 37.5c-25.333 0 -48 -7.16699 -68 -21.5s-37.5 -33.333 -52.5 -57s-27.667 -50.834 -38 -81.501s-18.666 -62.167 -24.999 -94.5s-10.833 -64.5 -13.5 -96.5s-4 -61 -4 -87v-322c0 -30 4.5 -54.167 13.5 -72.5
s21.167 -32.166 36.5 -41.499s33.166 -15.5 53.499 -18.5s41.833 -4.5 64.5 -4.5h57v-86z" />
    <glyph glyph-name="s" unicode="s" horiz-adv-x="924" 
d="M430 -20c-51.333 0 -97.8242 4.50391 -139.491 13.5039s-77.167 22.667 -106.5 41s-52 41 -68 68s-24 58.5 -24 94.5c0 27.333 4.5 50.166 13.5 68.499s20 32.833 33 43.5s27 18.167 42 22.5s28.5 6.5 40.5 6.5c0 -36 3.66699 -69.667 11 -101
s19.666 -58.833 36.999 -82.5s40.166 -42.334 68.499 -56.001s63.166 -20.5 104.499 -20.5c36.667 0 69 4.5 97 13.5s51.5 21.667 70.5 38s33.5 36 43.5 59s15 48.167 15 75.5c0 25.333 -3.83301 47.166 -11.5 65.499s-21 35.5 -40 51.5s-44.833 32.333 -77.5 49
s-73.667 35.667 -123 57c-52.667 23.333 -98.5 45.833 -137.5 67.5s-71.167 45.167 -96.5 70.5s-44.333 54.166 -57 86.499s-19 70.833 -19 115.5c0 46.667 9.16699 88 27.5 124s44.5 66.167 78.5 90.5s74.667 42.833 122 55.5s100 19 158 19c48.667 0 91.667 -5 129 -15
s68.666 -23.5 93.999 -40.5s44.333 -37 57 -60s19 -47.167 19 -72.5c0 -37.333 -12.833 -67.166 -38.5 -89.499s-62.167 -33.5 -109.5 -33.5c0 68.667 -14.167 122 -42.5 160s-72.833 57 -133.5 57c-34.667 0 -64.334 -4 -89.001 -12s-44.834 -19.333 -60.501 -34
s-27.167 -32 -34.5 -52s-11 -42 -11 -66c0 -26 4.66699 -48.5 14 -67.5s24.166 -36.5 44.499 -52.5s46.666 -31.5 78.999 -46.5s71.166 -31.833 116.499 -50.5c54 -22.667 100.333 -45 139 -67s70.5 -46 95.5 -72s43.5 -55.333 55.5 -88s18 -70.334 18 -113.001
c0 -53.333 -9.66699 -100 -29 -140s-46.666 -73.5 -81.999 -100.5s-77.833 -47.167 -127.5 -60.5s-104.834 -20 -165.501 -20z" />
    <glyph glyph-name="t" unicode="t" horiz-adv-x="721" 
d="M543 88c24.667 0 47.333 1.33105 68 3.99805s41.667 6 63 10v-90c-8.66699 -4 -20 -8 -34 -12s-29.167 -7.5 -45.5 -10.5s-33.5 -5.33301 -51.5 -7s-35 -2.5 -51 -2.5c-52 0 -96.667 5.5 -134 16.5s-68 28.833 -92 53.5s-41.833 57.334 -53.5 98.001
s-17.5 90.334 -17.5 149.001v684h-156v82c24.667 0 51.834 5 81.501 15s55.834 26.667 78.501 50c23.333 25.333 42.166 55.5 56.499 90.5s26.833 78.833 37.5 131.5h94v-252h268v-117h-268v-690c0 -70 14.167 -121.333 42.5 -154s66.166 -49 113.499 -49z" />
    <glyph glyph-name="u" unicode="u" horiz-adv-x="1300" 
d="M1079 223c0 -30 4.5 -54.167 13.5 -72.5s21.167 -32.166 36.5 -41.499s33.166 -15.5 53.499 -18.5s41.833 -4.5 64.5 -4.5h6v-86h-325l-27 166h-10c-20.667 -38.667 -43.5 -70 -68.5 -94s-51.5 -42.833 -79.5 -56.5s-57.333 -23 -88 -28s-62.667 -7.5 -96 -7.5
c-54 0 -102 7.66699 -144 23s-77.333 39.333 -106 72s-50.5 74.334 -65.5 125.001s-22.5 111 -22.5 181v491c0 30 -4.5 54.167 -13.5 72.5s-21.167 32.5 -36.5 42.5s-33.166 16.667 -53.499 20s-41.833 5 -64.5 5h-6v86h367v-707c0 -44.667 3.5 -84.334 10.5 -119.001
s18.667 -64 35 -88s38.333 -42.167 66 -54.5s62.167 -18.5 103.5 -18.5c45.333 0 84.166 8 116.499 24s59 38.5 80 67.5s36.5 63.833 46.5 104.5s15 85.667 15 135v422c0 32 -4.5 57.833 -13.5 77.5s-21 34.667 -36 45s-32.667 17.166 -53 20.499s-42.166 5 -65.499 5h-6v86
h366v-875z" />
    <glyph glyph-name="v" unicode="v" horiz-adv-x="1186" 
d="M8 1012l-0.00390625 86.002h512v-86h-26c-41.333 0 -72.166 -8 -92.499 -24s-30.5 -41 -30.5 -75c0 -11.333 1.33301 -22.833 4 -34.5s6.66699 -25.167 12 -40.5l139 -387c8.66699 -24 17.667 -50.5 27 -79.5l26.5 -85.5c8.33301 -28 15.833 -54.5 22.5 -79.5
s11.334 -46.167 14.001 -63.5h7c3.33301 14.667 8.83301 32.834 16.5 54.501l26 71l30 78.5l29.5 77l147 399c6.66699 16.667 11.5 32.667 14.5 48s4.5 28.666 4.5 39.999c0 35.333 -11.167 61 -33.5 77s-56.166 24 -101.499 24h-15v86h439v-86h-25
c-20 0 -37 -2.16699 -51 -6.5s-26.667 -12.5 -38 -24.5s-22.166 -28.333 -32.499 -49s-21.833 -47.334 -34.5 -80.001l-323 -852h-187l-329 903c-8 21.333 -16.333 39 -25 53s-18.667 25.167 -30 33.5s-24.333 14.166 -39 17.499s-32 5 -52 5h-6z" />
    <glyph glyph-name="w" unicode="w" horiz-adv-x="1765" 
d="M975 1092l205.002 -606.999l25.5 -79.5l25.5 -84l22 -78.5c6.66699 -24.667 11.667 -45.667 15 -63h6c6 34 15.667 75.833 29 125.5s30.333 107.5 51 173.5l102 330c5.33301 17.333 9.83301 35.833 13.5 55.5s5.5 35.167 5.5 46.5c0 35.333 -11.167 61 -33.5 77
s-56.5 24 -102.5 24h-14v86h438v-86h-26c-20 0 -37.333 -2 -52 -6s-27.834 -11.833 -39.501 -23.5s-22.5 -27.834 -32.5 -48.501s-20 -48 -30 -82l-264 -852h-164l-244 721l-37 135l-290 -856h-162l-268 903c-8 21.333 -16.333 39 -25 53s-18.667 25.167 -30 33.5
s-24.333 14.166 -39 17.499s-32 5 -52 5h-6v86h506v-86h-27c-40.667 0 -71.334 -6 -92.001 -18s-31 -34.667 -31 -68c0 -11.333 1.83301 -25 5.5 -41s7.5 -31.667 11.5 -47l96 -344l21 -81c7.33301 -29.333 14.166 -58.5 20.499 -87.5l17.5 -81.5
c5.33301 -25.333 9.66602 -46.666 12.999 -63.999h6c3.33301 17.333 7.83301 37.5 13.5 60.5s12.334 47.667 20.001 74l24.5 80.5c8.66699 27.333 17.334 53.333 26.001 78l213 619h129z" />
    <glyph glyph-name="x" unicode="x" horiz-adv-x="1184" 
d="M786 952c0 24.667 -10.501 40.8301 -31.501 48.4971s-47.167 11.5 -78.5 11.5h-6v86h448v-86h-18c-20 0 -38.167 -1.66699 -54.5 -5s-32.333 -9.66602 -48 -18.999s-31.834 -22.666 -48.501 -39.999s-35.334 -39.666 -56.001 -66.999l-211 -281l301 -405
c30 -40 58.5 -68.167 85.5 -84.5s53.167 -24.5 78.5 -24.5h27v-86h-529v86h10c82 0 123 22.667 123 68c0 7.33301 -1 14.833 -3 22.5s-6 16.667 -12 27s-14 22.833 -24 37.5s-23 32.667 -39 54l-137 184l-143 -200c-6 -8 -12.333 -17.333 -19 -28s-12.667 -21.667 -18 -33
s-9.66602 -22.833 -12.999 -34.5s-5 -22.834 -5 -33.501c0 -23.333 9.66699 -39.833 29 -49.5s52 -14.5 98 -14.5h6v-86h-488v86h19c24.667 0 46.334 2 65.001 6s36.334 11 53.001 21s33.334 23.5 50.001 40.5s35 38.167 55 63.5l258 334l-258 352
c-30 35.333 -59.167 62.333 -87.5 81s-57.833 28 -88.5 28h-27v86h520v-86h-6c-23.333 0 -42.666 -1.5 -57.999 -4.5s-27.333 -7.33301 -36 -13s-14.667 -12.167 -18 -19.5s-5 -15 -5 -23c0 -14 4.16699 -27.833 12.5 -41.5s20.166 -31.167 35.499 -52.5l135 -184l106 153
c15.333 23.333 27.666 45.333 36.999 66s14 40.334 14 59.001z" />
    <glyph glyph-name="y" unicode="y" horiz-adv-x="1157" 
d="M1157 1098l-0.00195312 -85.999h-6c-20 0 -37.167 -2.16699 -51.5 -6.5s-27.333 -12.5 -39 -24.5s-22.5 -28.333 -32.5 -49s-21 -47.334 -33 -80.001l-311 -860c-24 -66 -46.667 -124 -68 -174s-43.666 -92.833 -66.999 -128.5s-48.833 -65.167 -76.5 -88.5
s-59.167 -42 -94.5 -56s-76 -23.667 -122 -29s-99.333 -8 -160 -8h-18v97c69.333 0 129 10.333 179 31s93.167 49 129.5 85s66.666 78.5 90.999 127.5s44.833 102.167 61.5 159.5l-379 895c-9.33301 21.333 -18.333 38.833 -27 52.5s-18.5 24.834 -29.5 33.501
s-23.667 14.667 -38 18s-31.5 5 -51.5 5h-6v86h492v-86h-6c-41.333 0 -72.166 -8 -92.499 -24s-30.5 -41 -30.5 -75c0 -11.333 1.16699 -22.833 3.5 -34.5s6.5 -25.167 12.5 -40.5l150 -365l29.5 -76.5c10.333 -27.667 20 -55 29 -82l24.5 -76.5
c7.33301 -24 12.333 -44.667 15 -62h6c7.33301 30 17.5 66.5 30.5 109.5s28.167 89.167 45.5 138.5l137 399c6 16.667 10.5 32.667 13.5 48s4.5 28.666 4.5 39.999c0 35.333 -11.167 61 -33.5 77s-56.166 24 -101.499 24h-6v86h426z" />
    <glyph glyph-name="z" unicode="z" horiz-adv-x="1047" 
d="M696 117c24 0 43.834 4.66895 59.501 14.002s28.667 21.666 39 36.999s18.666 33.166 24.999 53.499s11.833 41.5 16.5 63.5l10 47h86l-10 -332h-836v82l594 899h-320c-26.667 0 -48.667 -3.5 -66 -10.5s-31.5 -17.5 -42.5 -31.5s-20 -31.333 -27 -52
s-14.167 -44.667 -21.5 -72l-2 -8h-86l20 291h785v-84l-596 -897h372z" />
    <glyph glyph-name="braceleft" unicode="{" horiz-adv-x="877" 
d="M639 -262c-48 0 -90.499 7.00488 -127.499 21.0049s-67.833 33.667 -92.5 59s-43.334 56.166 -56.001 92.499s-19 77.166 -19 122.499v356c0 42 -6.16699 76.667 -18.5 104s-29.5 49.166 -51.5 65.499s-47.667 28 -77 35s-61 11.167 -95 12.5v86
c34 1.33301 65.667 5.33301 95 12s55 18.167 77 34.5s39.167 38.166 51.5 65.499s18.5 61.666 18.5 102.999v357c0 93.333 24.833 165.333 74.5 216s123.167 76 220.5 76h135v-88h-61c-60.667 0 -103.834 -18 -129.501 -54s-38.5 -89.667 -38.5 -161v-350
c0 -66.667 -18.833 -122.167 -56.5 -166.5s-94.834 -72.833 -171.501 -85.5v-2c78.667 -13.333 136.334 -42 173.001 -86s55 -100 55 -168v-354c0 -70 12.833 -123.333 38.5 -160s68.834 -55 129.501 -55h61v-88h-135z" />
    <glyph glyph-name="bar" unicode="|" 
d="M633 -492h-123v2048h123v-2048z" />
    <glyph glyph-name="braceright" unicode="}" horiz-adv-x="877" 
d="M102 -174l62.001 -0.00488281c60.667 0 103.834 18.333 129.501 55s38.5 90 38.5 160v354c0 68 18.167 124 54.5 168s93.833 72.667 172.5 86v2c-76 12.667 -132.833 41.167 -170.5 85.5s-56.5 99.833 -56.5 166.5v350c0 71.333 -12.833 125 -38.5 161
s-68.834 54 -129.501 54h-62v88h136c96.667 0 169.834 -25.333 219.501 -76s74.5 -122.667 74.5 -216v-357c0 -41.333 6.33301 -75.666 19 -102.999s29.834 -49.166 51.501 -65.499s47.167 -27.833 76.5 -34.5s61 -10.667 95 -12v-86c-34 -1.33301 -65.667 -5.5 -95 -12.5
s-54.833 -18.667 -76.5 -35s-38.834 -38.166 -51.501 -65.499s-19 -62 -19 -104v-356c0 -45.333 -6.33301 -86.166 -19 -122.499s-31.334 -67.166 -56.001 -92.499s-55.334 -45 -92.001 -59s-79 -21 -127 -21h-136v88z" />
    <glyph glyph-name="asciitilde" unicode="~" horiz-adv-x="1149" 
d="M776 551c-20 0 -40.6709 4.16699 -62.0039 12.5s-42.5 18.833 -63.5 31.5s-41 26.5 -60 41.5s-36.167 29.5 -51.5 43.5l-45 40.5c-14.667 13 -29.167 24.5 -43.5 34.5s-28.833 18 -43.5 24s-29.667 9 -45 9c-40 0 -69.667 -19.333 -89 -58
s-32.666 -98.334 -39.999 -179.001h-120c4 42.667 10.167 85.334 18.5 128.001s21.833 81 40.5 115s43.834 61.667 75.501 83s72.834 32 123.501 32c22.667 0 45.334 -4.33301 68.001 -13s44.667 -19.667 66 -33s41.5 -28 60.5 -44l52.5 -45l43 -38.5
c14 -12.333 27.833 -23.166 41.5 -32.499s27.5 -16.833 41.5 -22.5s28 -8.5 42 -8.5c38 0 66 20.5 84 61.5s31.667 99.5 41 175.5h123c-4.66699 -42.667 -11.667 -85.334 -21 -128.001s-23.5 -81 -42.5 -115s-44 -61.667 -75 -83s-70.833 -32 -119.5 -32z" />
    <glyph glyph-name="nonbreakingspace" unicode="&#xa0;" horiz-adv-x="532" 
 />
    <glyph glyph-name="exclamdown" unicode="&#xa1;" horiz-adv-x="682" 
d="M459 -367h-238l72 1051h94zM469 971c0 -26.667 -3.33301 -49 -10 -67s-15.834 -32.333 -27.501 -43s-25.334 -18.334 -41.001 -23.001s-32.5 -7 -50.5 -7c-17.333 0 -33.833 2.33301 -49.5 7s-29.334 12.334 -41.001 23.001s-21 25 -28 43s-10.5 40.333 -10.5 67
c0 26 3.5 47.833 10.5 65.5s16.333 32 28 43s25.334 18.833 41.001 23.5s32.167 7 49.5 7c18 0 34.833 -2.33301 50.5 -7s29.334 -12.5 41.001 -23.5s20.834 -25.333 27.501 -43s10 -39.5 10 -65.5z" />
    <glyph glyph-name="cent" unicode="&#xa2;" 
d="M584 180c-62 6.66699 -118.831 21.833 -170.498 45.5s-96.167 57.667 -133.5 102s-66.333 100.333 -87 168s-31 148.834 -31 243.501c0 101.333 11 187.333 33 258s52 128.5 90 173.5s82.667 78.667 134 101s106.333 36.166 165 41.499v149h102v-149
c39.333 -3.33301 78.666 -9.83301 117.999 -19.5s74.666 -23 105.999 -40s56.833 -37.833 76.5 -62.5s29.5 -53 29.5 -85c0 -47.333 -15.167 -80.666 -45.5 -99.999s-75.833 -29 -136.5 -29c0 28 -3 54.833 -9 80.5s-15 48.667 -27 69s-27.333 37.5 -46 51.5
s-40.667 23.333 -66 28v-909c28 0 56.167 2 84.5 6s55.5 9.16699 81.5 15.5s50.333 13.333 73 21s42 15.167 58 22.5v-112c-35.333 -18.667 -78.5 -35.334 -129.5 -50.001s-106.833 -22.667 -167.5 -24v-176h-102v180zM360.002 740.999c0 -122 18.167 -219.333 54.5 -292
s92.833 -119.334 169.5 -140.001v897c-32.667 -6 -62.667 -18.5 -90 -37.5s-51 -46.667 -71 -83s-35.5 -82.666 -46.5 -138.999s-16.5 -124.833 -16.5 -205.5z" />
    <glyph glyph-name="sterling" unicode="&#xa3;" 
d="M500 690c10 -34 19.3271 -68.666 27.9941 -103.999s13 -73.666 13 -114.999c0 -58.667 -16.5 -110.5 -49.5 -155.5s-76.833 -85.833 -131.5 -122.5l5 -9c28 13.333 54.167 22.833 78.5 28.5s47.833 8.5 70.5 8.5c27.333 0 57.333 -4 90 -12s65.167 -17 97.5 -27
s63.333 -19 93 -27s54.834 -12 75.501 -12c24 0 46.167 3.5 66.5 10.5s39.5 16.167 57.5 27.5s34.5 24.166 49.5 38.499s28.833 29.166 41.5 44.499v-133c-12 -16.667 -26.333 -34 -43 -52s-36 -34.333 -58 -49s-46.833 -26.667 -74.5 -36s-58.5 -14 -92.5 -14
s-67.333 4.83301 -100 14.5s-65.667 20.167 -99 31.5s-67.166 21.833 -101.499 31.5s-69.833 14.5 -106.5 14.5c-45.333 0 -87.666 -6.5 -126.999 -19.5s-81 -29.833 -125 -50.5l-27 -12v108l37 23c25.333 15.333 50.5 33.833 75.5 55.5s47.5 46.667 67.5 75
s36.333 59.833 49 94.5s19 72.334 19 113.001c0 40 -5 79.167 -15 117.5s-22 76.166 -36 113.499h-228v96h189c-9.33301 21.333 -18.666 45 -27.999 71s-17.666 53.167 -24.999 81.5s-13.333 57.333 -18 87s-7 58.5 -7 86.5c0 58.667 9.66699 111 29 157s47 84.833 83 116.5
s79.833 55.834 131.5 72.501s109.834 25 174.501 25c66 0 122 -5.83301 168 -17.5s83.333 -27.834 112 -48.501s49.5 -45 62.5 -73s19.5 -58.333 19.5 -91c0 -44 -14.5 -77.167 -43.5 -99.5s-68.5 -33.5 -118.5 -33.5c0 32 -2.83301 63.5 -8.5 94.5s-16 58.667 -31 83
s-36 44.166 -63 59.499s-62.167 23 -105.5 23c-79.333 0 -137.5 -22.667 -174.5 -68s-55.5 -110.666 -55.5 -195.999c0 -32 2.66699 -63.333 8 -94s12 -60.167 20 -88.5s16.667 -55 26 -80l26 -67.5h348v-96h-319z" />
    <glyph glyph-name="currency" unicode="&#xa4;" 
d="M197 733c0 41.333 5.83203 80.5 17.499 117.5s28.834 70.833 51.501 101.5l-135 135l86 87l133 -136c31.333 22.667 65.5 40.334 102.5 53.001s76.5 19 118.5 19c40 0 78.5 -6.33301 115.5 -19s70.833 -30.334 101.5 -53.001l138 138l86 -89l-135 -135
c22.667 -30.667 40.167 -64.5 52.5 -101.5s18.5 -76.167 18.5 -117.5s-6.16699 -80.5 -18.5 -117.5s-29.833 -70.833 -52.5 -101.5l135 -135l-84 -86l-137 135c-31.333 -21.333 -65.5 -38.333 -102.5 -51s-76.167 -19 -117.5 -19s-80.333 6 -117 18s-70.667 29.333 -102 52
l-135 -135l-86 86l133 135c-21.333 30.667 -37.833 64.5 -49.5 101.5s-17.5 76.167 -17.5 117.5zM310.999 733c0 -36 6.83301 -69.833 20.5 -101.5s32.334 -59.334 56.001 -83.001s51.167 -42.5 82.5 -56.5s65 -21 101 -21c37.333 0 72 7 104 21s59.667 32.833 83 56.5
s41.833 51.334 55.5 83.001s20.5 65.5 20.5 101.5c0 37.333 -6.83301 72 -20.5 104s-32.167 59.833 -55.5 83.5s-51 42.334 -83 56.001s-66.667 20.5 -104 20.5c-36 0 -69.667 -6.83301 -101 -20.5s-58.833 -32.334 -82.5 -56.001s-42.334 -51.5 -56.001 -83.5
s-20.5 -66.667 -20.5 -104z" />
    <glyph glyph-name="yen" unicode="&#xa5;" 
d="M264 0l0.000976562 85.998h47c22.667 0 44 1.5 64 4.5s37.5 9.16699 52.5 18.5s27 23.166 36 41.499s14.167 42.5 15.5 72.5v139h-286v97h286v143h-286v96h247l-278 570c-10 20 -19.333 36.833 -28 50.5s-18.5 24.834 -29.5 33.501s-23.5 14.834 -37.5 18.501
s-31 5.5 -51 5.5h-6v86h498v-86h-14c-41.333 0 -71.166 -6.33301 -89.499 -19s-27.5 -33 -27.5 -61c0 -16 2.66699 -34.167 8 -54.5s13.666 -42.166 24.999 -65.499l98 -218c10 -21.333 19.667 -44.333 29 -69l26.5 -73l22.5 -67l16 -51c2.66699 7.33301 7 18.166 13 32.499
l20.5 47l24 52l22.5 47.5l117 249c16 36 28.167 69.167 36.5 99.5s12.5 53.166 12.5 68.499c0 28 -9.5 48.667 -28.5 62s-51.167 20 -96.5 20h-6v86h418v-86h-19c-17.333 0 -32.333 -2.33301 -45 -7s-24.5 -13 -35.5 -25s-22.333 -28.333 -34 -49s-25.167 -46.667 -40.5 -78
l-250 -519h254v-96h-287v-143h287v-97h-287v-129c0 -32 4.5 -57.667 13.5 -77s21 -34.166 36 -44.499s32.667 -17.166 53 -20.499s42.166 -5 65.499 -5h47v-86h-629z" />
    <glyph glyph-name="brokenbar" unicode="&#xa6;" 
d="M633 737h-123v819h123v-819zM633 -492h-123v820h123v-820z" />
    <glyph glyph-name="section" unicode="&#xa7;" horiz-adv-x="1114" 
d="M598 795c-49.333 23.333 -95.498 46.333 -138.498 69s-82.167 48 -117.5 76c-14.667 -13.333 -26.834 -29.333 -36.501 -48s-14.5 -41.667 -14.5 -69s4.66699 -51.833 14 -73.5s25.333 -43 48 -64s53.167 -42.5 91.5 -64.5s86.833 -47.333 145.5 -76l122 -62.5
c40 -21 76.333 -45.833 109 -74.5c11.333 16 20.666 33.667 27.999 53s11 40.333 11 63c0 23.333 -3.33301 45.333 -10 66s-19.5 41.667 -38.5 63s-45.667 43.5 -80 66.5s-78.833 48.167 -133.5 75.5zM571.002 -133c84 0 146.67 18.5 188.003 55.5s62 86.833 62 149.5
c0 30 -3.66699 56.167 -11 78.5s-23.5 44.666 -48.5 66.999s-61.333 47 -109 74s-111.5 60.167 -191.5 99.5c-54 26.667 -100.167 53.834 -138.5 81.501s-69.5 56.834 -93.5 87.501s-41.5 63.5 -52.5 98.5s-16.5 72.833 -16.5 113.5c0 51.333 11.333 96.166 34 134.499
s51.667 69.833 87 94.5c-25.333 30 -44.333 63.5 -57 100.5s-19 80.167 -19 129.5c0 52 9.5 98.167 28.5 138.5s45.167 74.333 78.5 102s73.166 48.667 119.499 63s96.5 21.5 150.5 21.5c56 0 104.833 -5.83301 146.5 -17.5s76.334 -27.667 104.001 -48
s48.334 -44.5 62.001 -72.5s20.5 -58.333 20.5 -91c0 -44 -13.167 -75.833 -39.5 -95.5s-61.5 -29.5 -105.5 -29.5c0 32 -3.33301 63 -10 93s-17.834 56.833 -33.501 80.5s-36 42.667 -61 57s-55.833 21.5 -92.5 21.5c-68 0 -120.833 -17 -158.5 -51
s-56.5 -83.333 -56.5 -148c0 -36 6.83301 -66.167 20.5 -90.5s34 -46.333 61 -66s60.167 -38.834 99.5 -57.501l137 -66c58 -28 108 -56 150 -84s76.667 -57.167 104 -87.5s47.5 -62.5 60.5 -96.5s19.5 -71 19.5 -111c0 -24.667 -3.5 -49.167 -10.5 -73.5
s-16.167 -47.666 -27.5 -69.999s-24.333 -43.333 -39 -63s-30 -37.5 -46 -53.5c19.333 -26.667 34.666 -56.667 45.999 -90s17 -71 17 -113c0 -54 -7.5 -103.333 -22.5 -148s-38.333 -83.167 -70 -115.5s-72.334 -57.5 -122.001 -75.5s-109.167 -27 -178.5 -27
c-52.667 0 -100.5 5.16699 -143.5 15.5s-79.833 25.5 -110.5 45.5s-54.334 44.667 -71.001 74s-25 63.333 -25 102c0 28 4.5 51.167 13.5 69.5s20 33 33 44s27 18.667 42 23s28.5 6.5 40.5 6.5c0 -36 4.5 -70.833 13.5 -104.5s23 -63.5 42 -89.5s43.333 -46.833 73 -62.5
s65.167 -23.5 106.5 -23.5z" />
    <glyph glyph-name="dieresis" unicode="&#xa8;" horiz-adv-x="1182" 
d="M291 1409c0 21.333 2.66699 39.334 8 54.001s12.666 26.5 21.999 35.5s20.333 15.5 33 19.5s26.334 6 41.001 6s28.334 -2 41.001 -6s23.834 -10.5 33.501 -19.5s17.167 -20.833 22.5 -35.5s8 -32.667 8 -54c0 -20.667 -2.66699 -38.334 -8 -53.001
s-12.833 -26.667 -22.5 -36s-20.834 -16 -33.501 -20s-26.334 -6 -41.001 -6c-30 0 -54.833 8.66699 -74.5 26s-29.5 47 -29.5 89zM680 1409c0 21.333 2.66699 39.334 8 54.001s12.666 26.5 21.999 35.5s20.333 15.5 33 19.5s26.334 6 41.001 6s28.334 -2 41.001 -6
s23.834 -10.5 33.501 -19.5s17.167 -20.833 22.5 -35.5s8 -32.667 8 -54c0 -20.667 -2.66699 -38.334 -8 -53.001s-12.833 -26.667 -22.5 -36s-20.834 -16 -33.501 -20s-26.334 -6 -41.001 -6c-30 0 -54.833 8.66699 -74.5 26s-29.5 47 -29.5 89z" />
    <glyph glyph-name="copyright" unicode="&#xa9;" horiz-adv-x="1731" 
d="M901 365c31.333 0 60.3301 3.99805 86.9971 11.998s50.667 18.667 72 32s39.833 28.333 55.5 45s28.167 33.334 37.5 50.001c8 -6 14.833 -14.5 20.5 -25.5s8.5 -23.833 8.5 -38.5c0 -18.667 -6.5 -37.667 -19.5 -57s-32.333 -37 -58 -53s-57.667 -29 -96 -39
s-83.166 -15 -134.499 -15c-68 0 -127.5 11 -178.5 33s-93.667 53 -128 93s-60 88 -77 144s-25.5 118.333 -25.5 187c0 66.667 9.33301 127.667 28 183s46.5 103 83.5 143s82.667 71.167 137 93.5s117.5 33.5 189.5 33.5c47.333 0 88.5 -3.83301 123.5 -11.5
s64.167 -18 87.5 -31s40.833 -28.333 52.5 -46s17.5 -36.834 17.5 -57.501c0 -14.667 -3.66699 -28 -11 -40s-17.333 -22.167 -30 -30.5s-27.5 -14.666 -44.5 -18.999s-35.167 -6.5 -54.5 -6.5c0 19.333 -2.5 38.166 -7.5 56.499s-13.167 35 -24.5 50s-26.166 27 -44.499 36
s-41.166 13.5 -68.499 13.5c-48 0 -88.833 -8 -122.5 -24s-61.167 -39.667 -82.5 -71s-36.833 -69.666 -46.5 -114.999s-14.5 -97.666 -14.5 -156.999c0 -118 23 -208.833 69 -272.5s112.333 -95.5 199 -95.5zM112.997 730.998c0 69.333 9 136.166 27 200.499
s43.167 124.333 75.5 180s71.333 106.5 117 152.5s96.334 85.333 152.001 118s115.5 58 179.5 76s130.667 27 200 27s136.166 -9 200.499 -27s124.333 -43.333 180 -76s106.5 -72 152.5 -118s85.333 -96.833 118 -152.5s58 -115.667 76 -180s27 -131.166 27 -200.499
s-9 -136 -27 -200s-43.333 -123.833 -76 -179.5s-72 -106.334 -118 -152.001s-96.833 -84.834 -152.5 -117.501s-115.667 -57.834 -180 -75.501s-131.166 -26.5 -200.499 -26.5s-136 8.83301 -200 26.5s-123.833 42.834 -179.5 75.501s-106.334 71.834 -152.001 117.501
s-84.667 96.334 -117 152.001s-57.5 115.5 -75.5 179.5s-27 130.667 -27 200zM224.997 730.998c0 -58.667 7.66699 -115.17 23 -169.503s36.833 -105.166 64.5 -152.499s61 -90.5 100 -129.5s82.167 -72.333 129.5 -100s98.166 -49.167 152.499 -64.5s110.833 -23 169.5 -23
c59.333 0 116.333 7.66699 171 23s105.667 36.833 153 64.5s90.5 61 129.5 100s72.333 82.167 100 129.5s49.167 98.166 64.5 152.499s23 110.833 23 169.5s-7.66699 115.334 -23 170.001s-36.833 105.834 -64.5 153.501s-61 91 -100 130s-82.167 72.333 -129.5 100
s-98.333 49.167 -153 64.5s-111.667 23 -171 23c-58.667 0 -115.167 -7.66699 -169.5 -23s-105.166 -36.833 -152.499 -64.5s-90.5 -61 -129.5 -100s-72.333 -82.333 -100 -130s-49.167 -98.667 -64.5 -153s-23 -111.166 -23 -170.499z" />
    <glyph glyph-name="ordfeminine" unicode="&#xaa;" horiz-adv-x="782" 
d="M250 985c0 -42.667 8.99902 -72.168 26.999 -88.501s40.333 -24.5 67 -24.5c22.667 0 43 4 61 12s33.167 19.333 45.5 34s21.833 32 28.5 52s10 42 10 66v97l-63 -3c-33.333 -0.666992 -61.166 -4.5 -83.499 -11.5s-40.333 -16.667 -54 -29s-23.5 -27.166 -29.5 -44.499
s-9 -37.333 -9 -60zM386.999 1397c-20.667 0 -37.3311 -3.66602 -49.998 -10.999s-22.5 -17.333 -29.5 -30s-11.833 -27.5 -14.5 -44.5s-4 -35.167 -4 -54.5c-52 0 -92 6.83301 -120 20.5s-42 36.5 -42 68.5c0 23.333 7 43 21 59s33 29 57 39s52 17.333 84 22s66 7 102 7
c45.333 0 84.666 -4 117.999 -12s61.166 -20.833 83.499 -38.5s39 -40.5 50 -68.5s16.5 -62.333 16.5 -103v-311c0 -30.667 6.5 -51.667 19.5 -63s36.167 -17 69.5 -17v-69h-199l-37 94h-10c-12 -13.333 -25.167 -26.5 -39.5 -39.5s-30.333 -24.5 -48 -34.5
s-37.167 -18 -58.5 -24s-45 -9 -71 -9c-66 0 -118 17.667 -156 53s-57 87.333 -57 156c0 68 27 118.167 81 150.5s136.667 51.166 248 56.499l88 4v59c0 20.667 -1.16699 39.5 -3.5 56.5s-7 31.667 -14 44s-17.167 22 -30.5 29s-31.333 10.5 -54 10.5z" />
    <glyph glyph-name="guillemotleft" unicode="&#xab;" horiz-adv-x="1053" 
d="M133 586l313 356h103l-207 -389l207 -389h-103l-313 356v66zM504 586l313 356h103l-207 -389l207 -389h-103l-313 356v66z" />
    <glyph glyph-name="logicalnot" unicode="&#xac;" 
d="M1012 793v-541h-123v420h-756v121h879z" />
    <glyph glyph-name="uni00AD" unicode="&#xad;" horiz-adv-x="635" 
d="M51 481v154h533v-154h-533z" />
    <glyph glyph-name="registered" unicode="&#xae;" horiz-adv-x="1731" 
d="M477 358h26.9971c13.333 0 26 0.833008 38 2.5s22.5 5 31.5 10s16.167 12.167 21.5 21.5s8.33301 22 9 38v600c-0.666992 16 -3.66699 28.833 -9 38.5s-12.5 17 -21.5 22s-19.5 8.16699 -31.5 9.5s-24.667 2 -38 2h-27v72h369c234.667 0 352 -81.333 352 -244
c0 -32.667 -5.33301 -61.334 -16 -86.001s-24.667 -46 -42 -64s-37.166 -33.167 -59.499 -45.5s-45.166 -22.166 -68.499 -29.499l182 -293c6.66699 -11.333 13.167 -20.5 19.5 -27.5s13.833 -12.5 22.5 -16.5s18.834 -6.66699 30.501 -8s25.834 -2 42.501 -2v-69h-217
l-226 381h-108v-240c1.33301 -16 4.66602 -28.667 9.99902 -38s12.5 -16.5 21.5 -21.5s19.333 -8.33301 31 -10s24.167 -2.5 37.5 -2.5h29v-69h-410v69zM757.997 748l85.998 -0.00195312c36.667 0 67.334 3.66699 92.001 11s44.334 18.333 59.001 33
s25.167 33.334 31.5 56.001s9.5 49.334 9.5 80.001c0 30 -3.66699 55.667 -11 77s-18.833 38.5 -34.5 51.5s-36 22.5 -61 28.5s-55.5 9 -91.5 9h-80v-346zM112.995 730.998c0 69.333 9 136.166 27 200.499s43.167 124.333 75.5 180s71.333 106.5 117 152.5
s96.334 85.333 152.001 118s115.5 58 179.5 76s130.667 27 200 27s136.166 -9 200.499 -27s124.333 -43.333 180 -76s106.5 -72 152.5 -118s85.333 -96.833 118 -152.5s58 -115.667 76 -180s27 -131.166 27 -200.499s-9 -136 -27 -200s-43.333 -123.833 -76 -179.5
s-72 -106.334 -118 -152.001s-96.833 -84.834 -152.5 -117.501s-115.667 -57.834 -180 -75.501s-131.166 -26.5 -200.499 -26.5s-136 8.83301 -200 26.5s-123.833 42.834 -179.5 75.501s-106.334 71.834 -152.001 117.501s-84.667 96.334 -117 152.001
s-57.5 115.5 -75.5 179.5s-27 130.667 -27 200zM224.995 730.998c0 -58.667 7.66699 -115.17 23 -169.503s36.833 -105.166 64.5 -152.499s61 -90.5 100 -129.5s82.167 -72.333 129.5 -100s98.166 -49.167 152.499 -64.5s110.833 -23 169.5 -23
c59.333 0 116.333 7.66699 171 23s105.667 36.833 153 64.5s90.5 61 129.5 100s72.333 82.167 100 129.5s49.167 98.166 64.5 152.499s23 110.833 23 169.5s-7.66699 115.334 -23 170.001s-36.833 105.834 -64.5 153.501s-61 91 -100 130s-82.167 72.333 -129.5 100
s-98.333 49.167 -153 64.5s-111.667 23 -171 23c-58.667 0 -115.167 -7.66699 -169.5 -23s-105.166 -36.833 -152.499 -64.5s-90.5 -61 -129.5 -100s-72.333 -82.333 -100 -130s-49.167 -98.667 -64.5 -153s-23 -111.166 -23 -170.499z" />
    <glyph glyph-name="overscore" unicode="&#xaf;" horiz-adv-x="940" 
d="M950 1556h-960v121h960v-121z" />
    <glyph glyph-name="degree" unicode="&#xb0;" horiz-adv-x="819" 
d="M98 1151c0 43.333 8.16699 83.833 24.5 121.5s38.5 70.5 66.5 98.5s60.833 50.167 98.5 66.5s77.834 24.5 120.501 24.5c43.333 0 83.833 -8.16699 121.5 -24.5s70.5 -38.5 98.5 -66.5s50.167 -60.833 66.5 -98.5s24.5 -78.167 24.5 -121.5
c0 -42.667 -8.16699 -82.834 -24.5 -120.501s-38.5 -70.5 -66.5 -98.5s-60.833 -50 -98.5 -66s-78.167 -24 -121.5 -24c-42.667 0 -82.834 8 -120.501 24s-70.5 38 -98.5 66s-50.167 60.833 -66.5 98.5s-24.5 77.834 -24.5 120.501zM221 1151
c0 -25.333 4.83301 -49.5 14.5 -72.5s23 -43 40 -60s36.833 -30.5 59.5 -40.5s47 -15 73 -15c26.667 0 51.334 5 74.001 15s42.5 23.5 59.5 40.5s30.333 37 40 60s14.5 47.167 14.5 72.5c0 26.667 -4.83301 51.5 -14.5 74.5s-23 43 -40 60s-36.833 30.5 -59.5 40.5
s-47.334 15 -74.001 15c-26 0 -50.333 -5 -73 -15s-42.5 -23.5 -59.5 -40.5s-30.333 -37 -40 -60s-14.5 -47.833 -14.5 -74.5z" />
    <glyph glyph-name="plusminus" unicode="&#xb1;" 
d="M633 672v-379h-123v379h-377v121h377v378h123v-378h379v-121h-379zM1012 0h-879v121h879v-121z" />
    <glyph glyph-name="twosuperior" unicode="&#xb2;" horiz-adv-x="819" 
d="M690 1262c0 -32 -3.66602 -62.001 -10.999 -90.001s-19.666 -56 -36.999 -84s-40.166 -57 -68.499 -87s-63.833 -63.333 -106.5 -100l-217 -186h297c31.333 0 53.166 8.33301 65.499 25s20.5 36.334 24.5 59.001l8 43h70l-6 -256h-623v92l260 233
c30 27.333 55.333 55 76 83s37.167 56.167 49.5 84.5s21.166 56.5 26.499 84.5s8 55.333 8 82c0 22.667 -2.16699 43.5 -6.5 62.5s-11.333 35.5 -21 49.5s-22.167 24.833 -37.5 32.5s-34 11.5 -56 11.5c-24.667 0 -45.667 -4.83301 -63 -14.5s-31.333 -22.667 -42 -39
s-18.334 -35.333 -23.001 -57s-7 -44.167 -7 -67.5c-46 0 -82.167 5.66699 -108.5 17s-39.5 35 -39.5 71c0 24.667 6 47.5 18 68.5s29.833 39.167 53.5 54.5s53.167 27.333 88.5 36s76.333 13 123 13c95.333 0 170 -18.833 224 -56.5s81 -92.5 81 -164.5z" />
    <glyph glyph-name="threesuperior" unicode="&#xb3;" horiz-adv-x="819" 
d="M356 573c-89.333 0 -157.336 15.4971 -204.003 46.4971s-70 71.5 -70 121.5c0 30 8.5 54.333 25.5 73s39.833 28 68.5 28c0 -21.333 3.5 -42.5 10.5 -63.5s17.667 -39.833 32 -56.5s32.333 -30.167 54 -40.5s47.5 -15.5 77.5 -15.5c56.667 0 101.167 13.833 133.5 41.5
s48.5 73.167 48.5 136.5c0 48 -17.333 86.167 -52 114.5s-89.667 42.5 -165 42.5h-67v84h67c26 0 50 4.16699 72 12.5s41.333 20.166 58 35.499s29.667 33.833 39 55.5s14 46.167 14 73.5c0 45.333 -9 79.833 -27 103.5s-48 35.5 -90 35.5c-26 0 -47.667 -4.83301 -65 -14.5
s-31.166 -22.667 -41.499 -39s-17.666 -35.333 -21.999 -57s-6.5 -44.167 -6.5 -67.5c-23.333 0 -44.5 1.16699 -63.5 3.5s-35 6.83301 -48 13.5s-23 15.667 -30 27s-10.5 26 -10.5 44c0 24.667 6.16699 47.5 18.5 68.5s30.666 39.167 54.999 54.5s54.333 27.333 90 36
s76.834 13 123.501 13c45.333 0 86.666 -4.66699 123.999 -14s69.333 -22.666 96 -39.999s47.167 -38.5 61.5 -63.5s21.5 -53.5 21.5 -85.5c0 -30 -5.66699 -56.833 -17 -80.5s-26.5 -44.5 -45.5 -62.5s-41.167 -33.5 -66.5 -46.5s-52 -23.5 -80 -31.5v-10
c27.333 -4.66699 55.333 -11.167 84 -19.5s54.834 -20.166 78.501 -35.499s43.167 -35.166 58.5 -59.499s23 -55.166 23 -92.499c0 -50 -11.167 -92.167 -33.5 -126.5s-51.166 -62 -86.499 -83s-74.333 -36.167 -117 -45.5s-84.667 -14 -126 -14z" />
    <glyph glyph-name="acute" unicode="&#xb4;" horiz-adv-x="1182" 
d="M391 1268c15.333 19.333 31.168 41.668 47.501 67.001s32.333 51.5 48 78.5l45 81c14.333 27 26.833 51.833 37.5 74.5h219v-21c-12.667 -18 -31.334 -40.5 -56.001 -67.5s-52 -55.167 -82 -84.5s-60.833 -57.833 -92.5 -85.5s-61.167 -50.834 -88.5 -69.501h-78v27z" />
    <glyph glyph-name="mu" unicode="&#xb5;" horiz-adv-x="1260" 
d="M569 -20c-57.333 0 -106.498 10.501 -147.498 31.501s-75.167 50.5 -102.5 88.5c1.33301 -56.667 3.66602 -109 6.99902 -157s10.5 -90 21.5 -126s27.167 -65.167 48.5 -87.5s51 -36.5 89 -42.5c0 -26 -2.83301 -49.833 -8.5 -71.5s-14.334 -40.5 -26.001 -56.5
s-26.5 -28.5 -44.5 -37.5s-39.333 -13.5 -64 -13.5c-21.333 0 -42 4 -62 12s-37.667 21.5 -53 40.5s-27.666 44.167 -36.999 75.5s-14 70 -14 116c0 40.667 1.16699 84.5 3.5 131.5l7.5 156l8.5 189.5c3 69.333 4.83301 146.666 5.5 231.999v637h192v-688
c0 -44.667 3.33301 -85.334 10 -122.001s17.834 -68.167 33.501 -94.5s36.667 -46.666 63 -60.999s59.166 -21.5 98.499 -21.5c38 0 72.333 8 103 24s56.667 38.5 78 67.5s37.833 63.833 49.5 104.5s17.5 85.667 17.5 135v656h192v-834c0 -30 4 -56.167 12 -78.5
s18.167 -40.833 30.5 -55.5s26.166 -25.667 41.499 -33s30.333 -11 45 -11h7v-86h-111c-56 -0 -100 13.833 -132 41.5s-54.333 68.5 -67 122.5h-8c-16 -27.333 -33.167 -52.333 -51.5 -75s-39 -42 -62 -58s-48.667 -28.5 -77 -37.5s-60.5 -13.5 -96.5 -13.5z" />
    <glyph glyph-name="paragraph" unicode="&#xb6;" horiz-adv-x="1264" 
d="M860 1452l-193.998 -0.00195312v-1679h-320v86h27c23.333 0 45.166 1.66699 65.499 5s38 10.166 53 20.499s27 25.166 36 44.499s13.5 45 13.5 77v785h-146c-60 0 -110 10.833 -150 32.5s-72 51 -96 88s-41.167 79.667 -51.5 128s-15.5 99.166 -15.5 152.499
c0 54.667 5.66699 104.334 17 149.001s29.666 83 54.999 115s58 56.667 98 74s89 26 147 26h781v-86h-27c-22.667 0 -44.334 -1.66699 -65.001 -5s-38.5 -10.166 -53.5 -20.499s-27 -25.166 -36 -44.499s-13.5 -45 -13.5 -77v-1317c0 -32 4.5 -57.667 13.5 -77
s21 -34.166 36 -44.499s32.833 -17.166 53.5 -20.499s42.334 -5 65.001 -5h27v-86h-320v1679z" />
    <glyph glyph-name="periodcentered" unicode="&#xb7;" horiz-adv-x="586" 
d="M166 729c0 26.667 3.33301 49 10 67s15.834 32.333 27.501 43s25.334 18.167 41.001 22.5s32.5 6.5 50.5 6.5c17.333 0 33.833 -2.16699 49.5 -6.5s29.334 -11.833 41.001 -22.5s21 -25 28 -43s10.5 -40.333 10.5 -67c0 -26 -3.5 -47.833 -10.5 -65.5
s-16.333 -32 -28 -43s-25.334 -18.833 -41.001 -23.5s-32.167 -7 -49.5 -7c-18 0 -34.833 2.33301 -50.5 7s-29.334 12.5 -41.001 23.5s-20.834 25.333 -27.501 43s-10 39.5 -10 65.5z" />
    <glyph glyph-name="cedilla" unicode="&#xb8;" horiz-adv-x="682" 
d="M551 -258c0 -72.667 -23.1699 -129.833 -69.5029 -171.5s-113.166 -62.5 -200.499 -62.5c-10.667 0 -22.667 0.5 -36 1.5s-27 2.5 -41 4.5s-28 4.5 -42 7.5s-27 6.16699 -39 9.5v104c24.667 -5.33301 49.334 -9.33301 74.001 -12s46.334 -4 65.001 -4
c39.333 0 70 10.333 92 31s33 48.667 33 84c0 40 -14.5 70 -43.5 90s-65.833 31.667 -110.5 35l43 159h97l-21 -88c66.667 -5.33301 116.5 -24.5 149.5 -57.5s49.5 -76.5 49.5 -130.5z" />
    <glyph glyph-name="onesuperior" unicode="&#xb9;" horiz-adv-x="819" 
d="M145 588v69h95c12 0 23 0.833008 33 2.5s18.833 5.16699 26.5 10.5s13.667 13.166 18 23.499s6.5 24.166 6.5 41.499v590h-191v70h103c15.333 0 31.666 1 48.999 3s34 6 50 12s30.333 14 43 24s22 23 28 39h102v-738c0 -17.333 2.33301 -31.166 7 -41.499
s10.834 -18.166 18.501 -23.499s16.667 -8.83301 27 -10.5s21.5 -2.5 33.5 -2.5h94v-69h-543z" />
    <glyph glyph-name="ordmasculine" unicode="&#xba;" horiz-adv-x="813" 
d="M250 1126c0 -88.667 11.665 -155.167 34.998 -199.5s64.333 -66.5 123 -66.5c57.333 0 97.833 22.167 121.5 66.5s35.5 110.833 35.5 199.5c0 87.333 -12.167 152.5 -36.5 195.5s-65.166 64.5 -122.499 64.5s-97.666 -21.5 -120.999 -64.5s-35 -108.167 -35 -195.5z
M740.998 1126c0 -117.333 -28.334 -204.668 -85.001 -262.001s-140 -86 -250 -86c-105.333 0 -187.333 28.833 -246 86.5s-88 144.834 -88 261.501c0 117.333 28.333 204.5 85 261.5s141 85.5 253 85.5c51.333 0 97.333 -7.16699 138 -21.5s75.334 -35.833 104.001 -64.5
s50.667 -64.667 66 -108s23 -94.333 23 -153z" />
    <glyph glyph-name="guillemotright" unicode="&#xbb;" horiz-adv-x="1053" 
d="M920 520l-314 -356h-102l207 389l-207 389h102l314 -356v-66zM549 520l-313 -356h-103l207 389l-207 389h103l313 -356v-66z" />
    <glyph glyph-name="onequarter" unicode="&#xbc;" horiz-adv-x="1720" 
d="M60 588v69h95c12 0 23 0.833008 33 2.5s18.833 5.16699 26.5 10.5s13.667 13.166 18 23.499s6.5 24.166 6.5 41.499v590h-191v70h103c15.333 0 31.666 1 48.999 3s34 6 50 12s30.333 14 43 24s22 23 28 39h102v-738c0 -17.333 2.33301 -31.166 7 -41.499
s10.834 -18.166 18.501 -23.499s16.667 -8.83301 27 -10.5s21.5 -2.5 33.5 -2.5h94v-69h-543zM566 0h-136l731 1462h134zM1477 261v-113c0 -17.333 2.33301 -31.166 7 -41.499s11 -18.166 19 -23.499s17.167 -8.83301 27.5 -10.5s21.166 -2.5 32.499 -2.5h41v-69h-451v69h57
c11.333 0 22 0.833008 32 2.5s18.833 5.16699 26.5 10.5s13.834 13.166 18.501 23.499s7 24.166 7 41.499v113h-364v61l383 564h164v-537h196v-88h-196zM1294 580c0 21.333 1 45.666 3 72.999s4.66699 53.666 8 78.999c-5.33301 -11.333 -11 -22.666 -17 -33.999
s-10.667 -19.666 -14 -24.999l-223 -324h243v231z" />
    <glyph glyph-name="onehalf" unicode="&#xbd;" horiz-adv-x="1720" 
d="M60 588v69h95c12 0 23 0.833008 33 2.5s18.833 5.16699 26.5 10.5s13.667 13.166 18 23.499s6.5 24.166 6.5 41.499v590h-191v70h103c15.333 0 31.666 1 48.999 3s34 6 50 12s30.333 14 43 24s22 23 28 39h102v-738c0 -17.333 2.33301 -31.166 7 -41.499
s10.834 -18.166 18.501 -23.499s16.667 -8.83301 27 -10.5s21.5 -2.5 33.5 -2.5h94v-69h-543zM525 0h-136l731 1462h134zM1620 677c0 -32 -3.66602 -62.001 -10.999 -90.001s-19.666 -56 -36.999 -84s-40.166 -57 -68.499 -87s-63.833 -63.333 -106.5 -100l-217 -186h297
c31.333 0 53.166 8.33301 65.499 25s20.5 36.334 24.5 59.001l8 43h70l-6 -256h-623v92l260 233c30 27.333 55.333 55 76 83s37.167 56.167 49.5 84.5s21.166 56.5 26.499 84.5s8 55.333 8 82c0 22.667 -2.16699 43.5 -6.5 62.5s-11.333 35.5 -21 49.5
s-22.167 24.833 -37.5 32.5s-34 11.5 -56 11.5c-24.667 0 -45.667 -4.83301 -63 -14.5s-31.333 -22.667 -42 -39s-18.334 -35.333 -23.001 -57s-7 -44.167 -7 -67.5c-46 0 -82.167 5.66699 -108.5 17s-39.5 35 -39.5 71c0 24.667 6 47.5 18 68.5s29.833 39.167 53.5 54.5
s53.167 27.333 88.5 36s76.333 13 123 13c95.333 0 170 -18.833 224 -56.5s81 -92.5 81 -164.5z" />
    <glyph glyph-name="threequarters" unicode="&#xbe;" horiz-adv-x="1720" 
d="M356 573c-89.333 0 -157.336 15.4971 -204.003 46.4971s-70 71.5 -70 121.5c0 30 8.5 54.333 25.5 73s39.833 28 68.5 28c0 -21.333 3.5 -42.5 10.5 -63.5s17.667 -39.833 32 -56.5s32.333 -30.167 54 -40.5s47.5 -15.5 77.5 -15.5c56.667 0 101.167 13.833 133.5 41.5
s48.5 73.167 48.5 136.5c0 48 -17.333 86.167 -52 114.5s-89.667 42.5 -165 42.5h-67v84h67c26 0 50 4.16699 72 12.5s41.333 20.166 58 35.499s29.667 33.833 39 55.5s14 46.167 14 73.5c0 45.333 -9 79.833 -27 103.5s-48 35.5 -90 35.5c-26 0 -47.667 -4.83301 -65 -14.5
s-31.166 -22.667 -41.499 -39s-17.666 -35.333 -21.999 -57s-6.5 -44.167 -6.5 -67.5c-23.333 0 -44.5 1.16699 -63.5 3.5s-35 6.83301 -48 13.5s-23 15.667 -30 27s-10.5 26 -10.5 44c0 24.667 6.16699 47.5 18.5 68.5s30.666 39.167 54.999 54.5s54.333 27.333 90 36
s76.834 13 123.501 13c45.333 0 86.666 -4.66699 123.999 -14s69.333 -22.666 96 -39.999s47.167 -38.5 61.5 -63.5s21.5 -53.5 21.5 -85.5c0 -30 -5.66699 -56.833 -17 -80.5s-26.5 -44.5 -45.5 -62.5s-41.167 -33.5 -66.5 -46.5s-52 -23.5 -80 -31.5v-10
c27.333 -4.66699 55.333 -11.167 84 -19.5s54.834 -20.166 78.501 -35.499s43.167 -35.166 58.5 -59.499s23 -55.166 23 -92.499c0 -50 -11.167 -92.167 -33.5 -126.5s-51.166 -62 -86.499 -83s-74.333 -36.167 -117 -45.5s-84.667 -14 -126 -14zM606.997 -0.00292969h-136
l731 1462h134zM1477 260.997v-113c0 -17.333 2.33301 -31.166 7 -41.499s11 -18.166 19 -23.499s17.167 -8.83301 27.5 -10.5s21.166 -2.5 32.499 -2.5h41v-69h-451v69h57c11.333 0 22 0.833008 32 2.5s18.833 5.16699 26.5 10.5s13.834 13.166 18.501 23.499
s7 24.166 7 41.499v113h-364v61l383 564h164v-537h196v-88h-196zM1294 579.997c0 21.333 1 45.666 3 72.999s4.66699 53.666 8 78.999c-5.33301 -11.333 -11 -22.666 -17 -33.999s-10.667 -19.666 -14 -24.999l-223 -324h243v231z" />
    <glyph glyph-name="questiondown" unicode="&#xbf;" horiz-adv-x="1024" 
d="M502 682l124.999 -0.000976562v-311c-59.333 -24 -109.166 -52 -149.499 -84s-72.666 -66.333 -96.999 -103s-41.666 -75 -51.999 -115s-15.5 -80.667 -15.5 -122c0 -35.333 4.33301 -67.5 13 -96.5s22 -53.833 40 -74.5s41.167 -36.667 69.5 -48s62.166 -17 101.499 -17
c42.667 0 78.5 7 107.5 21s52.5 33 70.5 57s31 51.833 39 83.5s12 65.167 12 100.5c24.667 0 47.334 -2.83301 68.001 -8.5s38.5 -14 53.5 -25s26.833 -24.833 35.5 -41.5s13 -36 13 -58c0 -32.667 -7.5 -63 -22.5 -91s-38.333 -52.167 -70 -72.5s-71.5 -36.333 -119.5 -48
s-105 -17.5 -171 -17.5c-64.667 0 -124.334 8.33301 -179.001 25s-102 40.834 -142 72.501s-71.333 70.5 -94 116.5s-34 98.333 -34 157c0 56 8.83301 107.167 26.5 153.5s43.5 88.5 77.5 126.5s75.667 72.5 125 103.5s105.666 59.5 168.999 85.5v231zM695.999 968.999
c0 -26.667 -3.33301 -49 -10 -67s-15.834 -32.333 -27.501 -43s-25.334 -18.334 -41.001 -23.001s-32.5 -7 -50.5 -7c-17.333 0 -33.833 2.33301 -49.5 7s-29.334 12.334 -41.001 23.001s-21 25 -28 43s-10.5 40.333 -10.5 67c0 26 3.5 47.833 10.5 65.5s16.333 32 28 43
s25.334 18.833 41.001 23.5s32.167 7 49.5 7c18 0 34.833 -2.33301 50.5 -7s29.334 -12.5 41.001 -23.5s20.834 -25.333 27.501 -43s10 -39.5 10 -65.5z" />
    <glyph glyph-name="Agrave" unicode="&#xc0;" horiz-adv-x="1444" 
d="M414 489l-77.998 -215.002c-6 -16 -10.667 -31.833 -14 -47.5s-5 -29.167 -5 -40.5c0 -34.667 11.167 -60 33.5 -76s56.5 -24 102.5 -24h47v-86h-500v86h39c20 0 37 2.16699 51 6.5s26.667 12.5 38 24.5s22.166 28.333 32.499 49s21.833 47.334 34.5 80.001l454 1216h160
l463 -1267c8 -21.333 16.167 -39 24.5 -53s18.166 -25.167 29.499 -33.5s24.333 -14.166 39 -17.499s32 -5 52 -5h27v-86h-563v86h47c82 0 123 32.667 123 98c0 11.333 -1.5 23 -4.5 35s-7.16699 25.667 -12.5 41l-82 229h-538zM788.002 949.998l-58.502 170.5
c-17.667 53 -32.167 104.167 -43.5 153.5c-4.66699 -24.667 -10.167 -48.5 -16.5 -71.5s-13.166 -46.5 -20.499 -70.5s-15.666 -49.167 -24.999 -75.5l-32 -87.5l-139 -377h462zM805 1579l-78 -0.00195312c-27.333 18.667 -57 41.834 -89 69.501s-63 56.167 -93 85.5
s-57.333 57.5 -82 84.5s-43.334 49.5 -56.001 67.5v21h219c10.667 -22.667 23.167 -47.5 37.5 -74.5s29.5 -54 45.5 -81s32.333 -53.167 49 -78.5s32.334 -47.666 47.001 -66.999v-27z" />
    <glyph glyph-name="Aacute" unicode="&#xc1;" horiz-adv-x="1444" 
d="M414 489l-77.998 -215.002c-6 -16 -10.667 -31.833 -14 -47.5s-5 -29.167 -5 -40.5c0 -34.667 11.167 -60 33.5 -76s56.5 -24 102.5 -24h47v-86h-500v86h39c20 0 37 2.16699 51 6.5s26.667 12.5 38 24.5s22.166 28.333 32.499 49s21.833 47.334 34.5 80.001l454 1216h160
l463 -1267c8 -21.333 16.167 -39 24.5 -53s18.166 -25.167 29.499 -33.5s24.333 -14.166 39 -17.499s32 -5 52 -5h27v-86h-563v86h47c82 0 123 32.667 123 98c0 11.333 -1.5 23 -4.5 35s-7.16699 25.667 -12.5 41l-82 229h-538zM788.002 949.998l-58.502 170.5
c-17.667 53 -32.167 104.167 -43.5 153.5c-4.66699 -24.667 -10.167 -48.5 -16.5 -71.5s-13.166 -46.5 -20.499 -70.5s-15.666 -49.167 -24.999 -75.5l-32 -87.5l-139 -377h462zM637 1606c15.333 19.333 31.168 41.668 47.501 67.001s32.333 51.5 48 78.5l45 81
c14.333 27 26.833 51.833 37.5 74.5h219v-21c-12.667 -18 -31.334 -40.5 -56.001 -67.5s-52 -55.167 -82 -84.5s-60.833 -57.833 -92.5 -85.5s-61.167 -50.834 -88.5 -69.501h-78v27z" />
    <glyph glyph-name="Acircumflex" unicode="&#xc2;" horiz-adv-x="1444" 
d="M414 489l-77.998 -215.002c-6 -16 -10.667 -31.833 -14 -47.5s-5 -29.167 -5 -40.5c0 -34.667 11.167 -60 33.5 -76s56.5 -24 102.5 -24h47v-86h-500v86h39c20 0 37 2.16699 51 6.5s26.667 12.5 38 24.5s22.166 28.333 32.499 49s21.833 47.334 34.5 80.001l454 1216h160
l463 -1267c8 -21.333 16.167 -39 24.5 -53s18.166 -25.167 29.499 -33.5s24.333 -14.166 39 -17.499s32 -5 52 -5h27v-86h-563v86h47c82 0 123 32.667 123 98c0 11.333 -1.5 23 -4.5 35s-7.16699 25.667 -12.5 41l-82 229h-538zM788.002 949.998l-58.502 170.5
c-17.667 53 -32.167 104.167 -43.5 153.5c-4.66699 -24.667 -10.167 -48.5 -16.5 -71.5s-13.166 -46.5 -20.499 -70.5s-15.666 -49.167 -24.999 -75.5l-32 -87.5l-139 -377h462zM422 1606l52.998 67l57.5 78.5c19 27 36.833 54 53.5 81s30.334 51.833 41.001 74.5h194
c10.667 -22.667 24.334 -47.5 41.001 -74.5s34.5 -54 53.5 -81l57.5 -78.5l53 -67v-27h-80c-39.333 22.667 -78.666 50.834 -117.999 84.501s-74.333 66.834 -105 99.501c-31.333 -32.667 -66.333 -65.834 -105 -99.501s-77.334 -61.834 -116.001 -84.501h-80v27z" />
    <glyph glyph-name="Atilde" unicode="&#xc3;" horiz-adv-x="1444" 
d="M414 489l-77.998 -215.002c-6 -16 -10.667 -31.833 -14 -47.5s-5 -29.167 -5 -40.5c0 -34.667 11.167 -60 33.5 -76s56.5 -24 102.5 -24h47v-86h-500v86h39c20 0 37 2.16699 51 6.5s26.667 12.5 38 24.5s22.166 28.333 32.499 49s21.833 47.334 34.5 80.001l454 1216h160
l463 -1267c8 -21.333 16.167 -39 24.5 -53s18.166 -25.167 29.499 -33.5s24.333 -14.166 39 -17.499s32 -5 52 -5h27v-86h-563v86h47c82 0 123 32.667 123 98c0 11.333 -1.5 23 -4.5 35s-7.16699 25.667 -12.5 41l-82 229h-538zM788.002 949.998l-58.502 170.5
c-17.667 53 -32.167 104.167 -43.5 153.5c-4.66699 -24.667 -10.167 -48.5 -16.5 -71.5s-13.166 -46.5 -20.499 -70.5s-15.666 -49.167 -24.999 -75.5l-32 -87.5l-139 -377h462zM895 1712c20 0 36.168 2.99902 48.501 8.99902s22 14.167 29 24.5s12 22 15 35
s5.5 26.5 7.5 40.5h92c-2 -31.333 -7.5 -61.5 -16.5 -90.5s-22.167 -54.833 -39.5 -77.5s-39 -40.667 -65 -54s-57.333 -20 -94 -20s-69.834 6.66699 -99.501 20s-57.334 28.166 -83.001 44.499l-72 44.5c-22.333 13.333 -44.5 20 -66.5 20c-20.667 0 -37 -3 -49 -9
s-21.5 -14 -28.5 -24s-12.167 -21.5 -15.5 -34.5s-6 -26.5 -8 -40.5h-92c2 31.333 7.5 61.333 16.5 90s22.333 54.334 40 77.001s39.667 40.667 66 54s57.833 20 94.5 20s69.834 -6.66699 99.501 -20s57.334 -28.166 83.001 -44.499l72 -44.5
c22.333 -13.333 44.166 -20 65.499 -20z" />
    <glyph glyph-name="Adieresis" unicode="&#xc4;" horiz-adv-x="1444" 
d="M414 489l-77.998 -215.002c-6 -16 -10.667 -31.833 -14 -47.5s-5 -29.167 -5 -40.5c0 -34.667 11.167 -60 33.5 -76s56.5 -24 102.5 -24h47v-86h-500v86h39c20 0 37 2.16699 51 6.5s26.667 12.5 38 24.5s22.166 28.333 32.499 49s21.833 47.334 34.5 80.001l454 1216h160
l463 -1267c8 -21.333 16.167 -39 24.5 -53s18.166 -25.167 29.499 -33.5s24.333 -14.166 39 -17.499s32 -5 52 -5h27v-86h-563v86h47c82 0 123 32.667 123 98c0 11.333 -1.5 23 -4.5 35s-7.16699 25.667 -12.5 41l-82 229h-538zM788.002 949.998l-58.502 170.5
c-17.667 53 -32.167 104.167 -43.5 153.5c-4.66699 -24.667 -10.167 -48.5 -16.5 -71.5s-13.166 -46.5 -20.499 -70.5s-15.666 -49.167 -24.999 -75.5l-32 -87.5l-139 -377h462zM424 1747c0 21.333 2.66699 39.334 8 54.001s12.666 26.5 21.999 35.5s20.333 15.5 33 19.5
s26.334 6 41.001 6s28.334 -2 41.001 -6s23.834 -10.5 33.501 -19.5s17.167 -20.833 22.5 -35.5s8 -32.667 8 -54c0 -20.667 -2.66699 -38.334 -8 -53.001s-12.833 -26.667 -22.5 -36s-20.834 -16 -33.501 -20s-26.334 -6 -41.001 -6c-30 0 -54.833 8.66699 -74.5 26
s-29.5 47 -29.5 89zM813 1747c0 21.333 2.66699 39.334 8 54.001s12.666 26.5 21.999 35.5s20.333 15.5 33 19.5s26.334 6 41.001 6s28.334 -2 41.001 -6s23.834 -10.5 33.501 -19.5s17.167 -20.833 22.5 -35.5s8 -32.667 8 -54c0 -20.667 -2.66699 -38.334 -8 -53.001
s-12.833 -26.667 -22.5 -36s-20.834 -16 -33.501 -20s-26.334 -6 -41.001 -6c-30 0 -54.833 8.66699 -74.5 26s-29.5 47 -29.5 89z" />
    <glyph glyph-name="Aring" unicode="&#xc5;" horiz-adv-x="1444" 
d="M414 489l-77.998 -215.002c-6 -16 -10.667 -31.833 -14 -47.5s-5 -29.167 -5 -40.5c0 -34.667 11.167 -60 33.5 -76s56.5 -24 102.5 -24h47v-86h-500v86h39c20 0 37 2.16699 51 6.5s26.667 12.5 38 24.5s22.166 28.333 32.499 49s21.833 47.334 34.5 80.001l454 1216h160
l463 -1267c8 -21.333 16.167 -39 24.5 -53s18.166 -25.167 29.499 -33.5s24.333 -14.166 39 -17.499s32 -5 52 -5h27v-86h-563v86h47c82 0 123 32.667 123 98c0 11.333 -1.5 23 -4.5 35s-7.16699 25.667 -12.5 41l-82 229h-538zM788.002 949.998l-58.502 170.5
c-17.667 53 -32.167 104.167 -43.5 153.5c-4.66699 -24.667 -10.167 -48.5 -16.5 -71.5s-13.166 -46.5 -20.499 -70.5s-15.666 -49.167 -24.999 -75.5l-32 -87.5l-139 -377h462zM971 1585c0 -36.667 -6.33301 -68.834 -19 -96.501s-30.167 -50.834 -52.5 -69.501
s-48.5 -32.834 -78.5 -42.501s-62 -14.5 -96 -14.5s-66 4.83301 -96 14.5s-56.167 23.834 -78.5 42.501s-39.833 41.834 -52.5 69.501s-19 59.834 -19 96.501c0 36 6.33301 68 19 96s30.167 51.333 52.5 70s48.5 32.834 78.5 42.501s62 14.5 96 14.5s66 -4.83301 96 -14.5
s56.167 -23.834 78.5 -42.501s39.833 -42 52.5 -70s19 -60 19 -96zM860 1585c0 22 -3.5 40.833 -10.5 56.5s-16.667 28.334 -29 38.001s-26.666 16.834 -42.999 21.501s-33.833 7 -52.5 7s-36.167 -2.33301 -52.5 -7s-30.666 -11.834 -42.999 -21.501
s-22 -22.334 -29 -38.001s-10.5 -34.5 -10.5 -56.5s3.5 -40.833 10.5 -56.5s16.667 -28.334 29 -38.001s26.666 -16.834 42.999 -21.501s33.833 -7 52.5 -7s36.167 2.33301 52.5 7s30.666 11.834 42.999 21.501s22 22.334 29 38.001s10.5 34.5 10.5 56.5z" />
    <glyph glyph-name="AE" unicode="&#xc6;" horiz-adv-x="1948" 
d="M1151 102l395 0.000976562c32 0 59.5 4.5 82.5 13.5s42.167 21.167 57.5 36.5s27.333 33.166 36 53.499s15 41.833 19 64.5l14 88h107l-15 -358h-1097v86h26c22.667 0 44 1.5 64 4.5s37.5 9.16699 52.5 18.5s27.167 23.166 36.5 41.499s14.333 42.5 15 72.5v266h-471
l-113 -215c-11.333 -21.333 -19.5 -41.666 -24.5 -60.999s-7.5 -35 -7.5 -47c0 -28 10.5 -48.333 31.5 -61s51.5 -19 91.5 -19h47v-86h-498v86h33c36 0 68.167 12.667 96.5 38s56.833 66 85.5 122l592 1120l-160 10v86h1135l10 -358h-106l-11 88
c-2.66699 22.667 -7.66699 44 -15 64s-18.166 37.5 -32.499 52.5s-32.333 27.167 -54 36.5s-47.834 14.333 -78.501 15h-344v-545h494v-100h-494v-613zM849 1221l-92.5 -183.501l-110.5 -214.5l-120 -231h418v768h-29c-16.667 -37.333 -38.667 -83.666 -66 -138.999z" />
    <glyph glyph-name="Ccedilla" unicode="&#xc7;" horiz-adv-x="1257" 
d="M774 1483c70 0 130.835 -5.83203 182.502 -17.499s94.667 -27.834 129 -48.501s60 -45 77 -73s25.5 -58.333 25.5 -91c0 -22 -4.5 -41.833 -13.5 -59.5s-21.5 -32.667 -37.5 -45s-34.833 -21.833 -56.5 -28.5s-45.167 -10 -70.5 -10c0 32 -4.16699 63.667 -12.5 95
s-22 59.5 -41 84.5s-43.667 45.333 -74 61s-67.833 23.5 -112.5 23.5c-77.333 0 -143 -14.167 -197 -42.5s-98 -69.666 -132 -123.999s-58.667 -121.333 -74 -201s-23 -170.834 -23 -273.501c0 -91.333 8 -175 24 -251s41.333 -141.167 76 -195.5
s78.834 -96.5 132.501 -126.5s118.167 -45 193.5 -45c50 0 94.167 4.83301 132.5 14.5s72.166 22.5 101.499 38.5s55.166 34.5 77.499 55.5s42.166 42.833 59.499 65.5c11.333 -7.33301 20.666 -17.333 27.999 -30s11 -29.334 11 -50.001c0 -26 -8.83301 -52.5 -26.5 -79.5
s-44.5 -51.5 -80.5 -73.5s-81.667 -40.167 -137 -54.5s-121 -21.5 -197 -21.5c-102 0 -191.667 18 -269 54s-142.166 87 -194.499 153s-91.833 145.333 -118.5 238s-40 195.334 -40 308.001c0 110.667 14 212 42 304s69.5 171 124.5 237s123.5 117.333 205.5 154
s177 55 285 55zM942.002 -257.999c0 -72.667 -23.1699 -129.833 -69.5029 -171.5s-113.166 -62.5 -200.499 -62.5c-10.667 0 -22.667 0.5 -36 1.5s-27 2.5 -41 4.5s-28 4.5 -42 7.5s-27 6.16699 -39 9.5v104c24.667 -5.33301 49.334 -9.33301 74.001 -12
s46.334 -4 65.001 -4c39.333 0 70 10.333 92 31s33 48.667 33 84c0 40 -14.5 70 -43.5 90s-65.833 31.667 -110.5 35l43 159h97l-21 -88c66.667 -5.33301 116.5 -24.5 149.5 -57.5s49.5 -76.5 49.5 -130.5z" />
    <glyph glyph-name="Egrave" unicode="&#xc8;" horiz-adv-x="1276" 
d="M479 102l395.001 0.00488281c32.667 0 60.5 4.5 83.5 13.5s42.167 21.167 57.5 36.5s27.333 33.166 36 53.499s14.667 41.833 18 64.5l14 88h107l-14 -358h-1098v86h26c22.667 0 44.167 1.5 64.5 4.5s38.166 9.16699 53.499 18.5s27.5 23.166 36.5 41.499
s13.5 42.5 13.5 72.5v1006c0 32 -4.33301 57.667 -13 77s-20.667 34.166 -36 44.499s-33.166 17.166 -53.499 20.499s-42.166 5 -65.499 5h-26v86h1032l10 -358h-106l-10 88c-2.66699 22.667 -7.83398 44.167 -15.501 64.5s-18.667 38.166 -33 53.499s-32.333 27.5 -54 36.5
s-47.834 13.5 -78.501 13.5h-344v-545h494v-100h-494v-613zM743.001 1579l-78 -0.00195312c-27.333 18.667 -57 41.834 -89 69.501s-63 56.167 -93 85.5s-57.333 57.5 -82 84.5s-43.334 49.5 -56.001 67.5v21h219c10.667 -22.667 23.167 -47.5 37.5 -74.5s29.5 -54 45.5 -81
s32.333 -53.167 49 -78.5s32.334 -47.666 47.001 -66.999v-27z" />
    <glyph glyph-name="Eacute" unicode="&#xc9;" horiz-adv-x="1276" 
d="M479 102l395.001 0.00488281c32.667 0 60.5 4.5 83.5 13.5s42.167 21.167 57.5 36.5s27.333 33.166 36 53.499s14.667 41.833 18 64.5l14 88h107l-14 -358h-1098v86h26c22.667 0 44.167 1.5 64.5 4.5s38.166 9.16699 53.499 18.5s27.5 23.166 36.5 41.499
s13.5 42.5 13.5 72.5v1006c0 32 -4.33301 57.667 -13 77s-20.667 34.166 -36 44.499s-33.166 17.166 -53.499 20.499s-42.166 5 -65.499 5h-26v86h1032l10 -358h-106l-10 88c-2.66699 22.667 -7.83398 44.167 -15.501 64.5s-18.667 38.166 -33 53.499s-32.333 27.5 -54 36.5
s-47.834 13.5 -78.501 13.5h-344v-545h494v-100h-494v-613zM545.001 1606c15.333 19.333 31.168 41.668 47.501 67.001s32.333 51.5 48 78.5l45 81c14.333 27 26.833 51.833 37.5 74.5h219v-21c-12.667 -18 -31.334 -40.5 -56.001 -67.5s-52 -55.167 -82 -84.5
s-60.833 -57.833 -92.5 -85.5s-61.167 -50.834 -88.5 -69.501h-78v27z" />
    <glyph glyph-name="Ecircumflex" unicode="&#xca;" horiz-adv-x="1276" 
d="M479 102l395.001 0.00488281c32.667 0 60.5 4.5 83.5 13.5s42.167 21.167 57.5 36.5s27.333 33.166 36 53.499s14.667 41.833 18 64.5l14 88h107l-14 -358h-1098v86h26c22.667 0 44.167 1.5 64.5 4.5s38.166 9.16699 53.499 18.5s27.5 23.166 36.5 41.499
s13.5 42.5 13.5 72.5v1006c0 32 -4.33301 57.667 -13 77s-20.667 34.166 -36 44.499s-33.166 17.166 -53.499 20.499s-42.166 5 -65.499 5h-26v86h1032l10 -358h-106l-10 88c-2.66699 22.667 -7.83398 44.167 -15.501 64.5s-18.667 38.166 -33 53.499s-32.333 27.5 -54 36.5
s-47.834 13.5 -78.501 13.5h-344v-545h494v-100h-494v-613zM350.001 1606l52.998 67l57.5 78.5c19 27 36.833 54 53.5 81s30.334 51.833 41.001 74.5h194c10.667 -22.667 24.334 -47.5 41.001 -74.5s34.5 -54 53.5 -81l57.5 -78.5l53 -67v-27h-80
c-39.333 22.667 -78.666 50.834 -117.999 84.501s-74.333 66.834 -105 99.501c-31.333 -32.667 -66.333 -65.834 -105 -99.501s-77.334 -61.834 -116.001 -84.501h-80v27z" />
    <glyph glyph-name="Edieresis" unicode="&#xcb;" horiz-adv-x="1276" 
d="M479 102l395.001 0.00488281c32.667 0 60.5 4.5 83.5 13.5s42.167 21.167 57.5 36.5s27.333 33.166 36 53.499s14.667 41.833 18 64.5l14 88h107l-14 -358h-1098v86h26c22.667 0 44.167 1.5 64.5 4.5s38.166 9.16699 53.499 18.5s27.5 23.166 36.5 41.499
s13.5 42.5 13.5 72.5v1006c0 32 -4.33301 57.667 -13 77s-20.667 34.166 -36 44.499s-33.166 17.166 -53.499 20.499s-42.166 5 -65.499 5h-26v86h1032l10 -358h-106l-10 88c-2.66699 22.667 -7.83398 44.167 -15.501 64.5s-18.667 38.166 -33 53.499s-32.333 27.5 -54 36.5
s-47.834 13.5 -78.501 13.5h-344v-545h494v-100h-494v-613zM342.001 1747c0 21.333 2.66699 39.334 8 54.001s12.666 26.5 21.999 35.5s20.333 15.5 33 19.5s26.334 6 41.001 6s28.334 -2 41.001 -6s23.834 -10.5 33.501 -19.5s17.167 -20.833 22.5 -35.5s8 -32.667 8 -54
c0 -20.667 -2.66699 -38.334 -8 -53.001s-12.833 -26.667 -22.5 -36s-20.834 -16 -33.501 -20s-26.334 -6 -41.001 -6c-30 0 -54.833 8.66699 -74.5 26s-29.5 47 -29.5 89zM731.001 1747.01c0 21.333 2.66699 39.334 8 54.001s12.666 26.5 21.999 35.5s20.333 15.5 33 19.5
s26.334 6 41.001 6s28.334 -2 41.001 -6s23.834 -10.5 33.501 -19.5s17.167 -20.833 22.5 -35.5s8 -32.667 8 -54c0 -20.667 -2.66699 -38.334 -8 -53.001s-12.833 -26.667 -22.5 -36s-20.834 -16 -33.501 -20s-26.334 -6 -41.001 -6c-30 0 -54.833 8.66699 -74.5 26
s-29.5 47 -29.5 89z" />
    <glyph glyph-name="Igrave" unicode="&#xcc;" horiz-adv-x="752" 
d="M78 0v86h26c23.333 0 45.166 1.66699 65.499 5s38.166 10.166 53.499 20.499s27.333 25.166 36 44.499s13 45 13 77v996c0 32 -4.33301 57.667 -13 77s-20.667 34.166 -36 44.499s-33.166 17.166 -53.499 20.499s-42.166 5 -65.499 5h-26v86h596v-86h-27
c-22.667 0 -44.334 -1.66699 -65.001 -5s-38.5 -10.166 -53.5 -20.499s-27 -25.166 -36 -44.499s-13.5 -45 -13.5 -77v-996c0 -32 4.5 -57.667 13.5 -77s21 -34.166 36 -44.499s32.833 -17.166 53.5 -20.499s42.334 -5 65.001 -5h27v-86h-596zM473 1579l-78 -0.00195312
c-27.333 18.667 -57 41.834 -89 69.501s-63 56.167 -93 85.5s-57.333 57.5 -82 84.5s-43.334 49.5 -56.001 67.5v21h219c10.667 -22.667 23.167 -47.5 37.5 -74.5s29.5 -54 45.5 -81s32.333 -53.167 49 -78.5s32.334 -47.666 47.001 -66.999v-27z" />
    <glyph glyph-name="Iacute" unicode="&#xcd;" horiz-adv-x="752" 
d="M78 0v86h26c23.333 0 45.166 1.66699 65.499 5s38.166 10.166 53.499 20.499s27.333 25.166 36 44.499s13 45 13 77v996c0 32 -4.33301 57.667 -13 77s-20.667 34.166 -36 44.499s-33.166 17.166 -53.499 20.499s-42.166 5 -65.499 5h-26v86h596v-86h-27
c-22.667 0 -44.334 -1.66699 -65.001 -5s-38.5 -10.166 -53.5 -20.499s-27 -25.166 -36 -44.499s-13.5 -45 -13.5 -77v-996c0 -32 4.5 -57.667 13.5 -77s21 -34.166 36 -44.499s32.833 -17.166 53.5 -20.499s42.334 -5 65.001 -5h27v-86h-596zM271 1606
c15.333 19.333 31.168 41.668 47.501 67.001s32.333 51.5 48 78.5l45 81c14.333 27 26.833 51.833 37.5 74.5h219v-21c-12.667 -18 -31.334 -40.5 -56.001 -67.5s-52 -55.167 -82 -84.5s-60.833 -57.833 -92.5 -85.5s-61.167 -50.834 -88.5 -69.501h-78v27z" />
    <glyph glyph-name="Icircumflex" unicode="&#xce;" horiz-adv-x="752" 
d="M78 0v86h26c23.333 0 45.166 1.66699 65.499 5s38.166 10.166 53.499 20.499s27.333 25.166 36 44.499s13 45 13 77v996c0 32 -4.33301 57.667 -13 77s-20.667 34.166 -36 44.499s-33.166 17.166 -53.499 20.499s-42.166 5 -65.499 5h-26v86h596v-86h-27
c-22.667 0 -44.334 -1.66699 -65.001 -5s-38.5 -10.166 -53.5 -20.499s-27 -25.166 -36 -44.499s-13.5 -45 -13.5 -77v-996c0 -32 4.5 -57.667 13.5 -77s21 -34.166 36 -44.499s32.833 -17.166 53.5 -20.499s42.334 -5 65.001 -5h27v-86h-596zM73 1606l52.998 67l57.5 78.5
c19 27 36.833 54 53.5 81s30.334 51.833 41.001 74.5h194c10.667 -22.667 24.334 -47.5 41.001 -74.5s34.5 -54 53.5 -81l57.5 -78.5l53 -67v-27h-80c-39.333 22.667 -78.666 50.834 -117.999 84.501s-74.333 66.834 -105 99.501
c-31.333 -32.667 -66.333 -65.834 -105 -99.501s-77.334 -61.834 -116.001 -84.501h-80v27z" />
    <glyph glyph-name="Idieresis" unicode="&#xcf;" horiz-adv-x="752" 
d="M78 0v86h26c23.333 0 45.166 1.66699 65.499 5s38.166 10.166 53.499 20.499s27.333 25.166 36 44.499s13 45 13 77v996c0 32 -4.33301 57.667 -13 77s-20.667 34.166 -36 44.499s-33.166 17.166 -53.499 20.499s-42.166 5 -65.499 5h-26v86h596v-86h-27
c-22.667 0 -44.334 -1.66699 -65.001 -5s-38.5 -10.166 -53.5 -20.499s-27 -25.166 -36 -44.499s-13.5 -45 -13.5 -77v-996c0 -32 4.5 -57.667 13.5 -77s21 -34.166 36 -44.499s32.833 -17.166 53.5 -20.499s42.334 -5 65.001 -5h27v-86h-596zM73 1747
c0 21.333 2.66699 39.334 8 54.001s12.666 26.5 21.999 35.5s20.333 15.5 33 19.5s26.334 6 41.001 6s28.334 -2 41.001 -6s23.834 -10.5 33.501 -19.5s17.167 -20.833 22.5 -35.5s8 -32.667 8 -54c0 -20.667 -2.66699 -38.334 -8 -53.001s-12.833 -26.667 -22.5 -36
s-20.834 -16 -33.501 -20s-26.334 -6 -41.001 -6c-30 0 -54.833 8.66699 -74.5 26s-29.5 47 -29.5 89zM462 1747c0 21.333 2.66699 39.334 8 54.001s12.666 26.5 21.999 35.5s20.333 15.5 33 19.5s26.334 6 41.001 6s28.334 -2 41.001 -6s23.834 -10.5 33.501 -19.5
s17.167 -20.833 22.5 -35.5s8 -32.667 8 -54c0 -20.667 -2.66699 -38.334 -8 -53.001s-12.833 -26.667 -22.5 -36s-20.834 -16 -33.501 -20s-26.334 -6 -41.001 -6c-30 0 -54.833 8.66699 -74.5 26s-29.5 47 -29.5 89z" />
    <glyph glyph-name="Eth" unicode="&#xd0;" horiz-adv-x="1489" 
d="M78 815l194.002 0.00195312v422c0 30 -4.5 54.167 -13.5 72.5s-21.167 32.5 -36.5 42.5s-33.166 16.5 -53.499 19.5s-41.833 4.5 -64.5 4.5h-26v86h627c105.333 0 199.333 -16.167 282 -48.5s152.5 -79.5 209.5 -141.5s100.5 -138.333 130.5 -229s45 -194 45 -310
c0 -112 -14 -213.167 -42 -303.5s-69.667 -167.333 -125 -231s-124.833 -112.667 -208.5 -147s-180.834 -51.5 -291.501 -51.5h-627v86h26c23.333 0 45.166 1.66699 65.499 5s38.166 10.166 53.499 20.499s27.333 25.166 36 44.499s13 45 13 77v482h-194v100z
M657.002 104.002c81.333 0 152.499 13.833 213.499 41.5s111.833 68.167 152.5 121.5s71.167 119 91.5 197s30.5 167.667 30.5 269s-10.167 191 -30.5 269s-50.666 143.5 -90.999 196.5s-91 93.167 -152 120.5s-131.833 41 -212.5 41h-180v-545h348v-100h-348v-611h178z" />
    <glyph glyph-name="Ntilde" unicode="&#xd1;" horiz-adv-x="1563" 
d="M1165 0l-768.003 1180v-947c0 -32 4.5 -57.667 13.5 -77s21 -34.166 36 -44.499s32.833 -17.166 53.5 -20.499s42.334 -5 65.001 -5h27v-86h-514v86h26c23.333 0 45.166 1.66699 65.499 5s38.166 10.166 53.499 20.499s27.333 25.166 36 44.499s13 45 13 77v1004
c0 30 -4.5 54.167 -13.5 72.5s-21.167 32.5 -36.5 42.5s-33.166 16.5 -53.499 19.5s-41.833 4.5 -64.5 4.5h-26v86h375l733 -1132v907c0 30 -4.5 54.167 -13.5 72.5s-21.167 32.5 -36.5 42.5s-33.166 16.5 -53.499 19.5s-41.833 4.5 -64.5 4.5h-27v86h514v-86h-26
c-23.333 0 -45.166 -1.66699 -65.499 -5s-38.166 -10.166 -53.499 -20.499s-27.333 -25.166 -36 -44.499s-13 -45 -13 -77v-1229h-146zM978.997 1712c20 0 36.168 2.99902 48.501 8.99902s22 14.167 29 24.5s12 22 15 35s5.5 26.5 7.5 40.5h92
c-2 -31.333 -7.5 -61.5 -16.5 -90.5s-22.167 -54.833 -39.5 -77.5s-39 -40.667 -65 -54s-57.333 -20 -94 -20s-69.834 6.66699 -99.501 20s-57.334 28.166 -83.001 44.499l-72 44.5c-22.333 13.333 -44.5 20 -66.5 20c-20.667 0 -37 -3 -49 -9s-21.5 -14 -28.5 -24
s-12.167 -21.5 -15.5 -34.5s-6 -26.5 -8 -40.5h-92c2 31.333 7.5 61.333 16.5 90s22.333 54.334 40 77.001s39.667 40.667 66 54s57.833 20 94.5 20s69.834 -6.66699 99.501 -20s57.334 -28.166 83.001 -44.499l72 -44.5c22.333 -13.333 44.166 -20 65.499 -20z" />
    <glyph glyph-name="Ograve" unicode="&#xd2;" horiz-adv-x="1520" 
d="M1403 733c0 -112.667 -13.9971 -215.33 -41.9971 -307.997s-69.333 -172 -124 -238s-122 -117 -202 -153s-171.667 -54 -275 -54c-108.667 0 -203.334 18 -284.001 54s-147.667 87 -201 153s-93.333 145.5 -120 238.5s-40 196.167 -40 309.5s13.333 216.166 40 308.499
s66.667 171.166 120 236.499s120.666 115.833 201.999 151.5s176.333 53.5 285 53.5c103.333 0 194.666 -17.833 273.999 -53.5s146.333 -86.334 201 -152.001s96 -144.667 124 -237s42 -195.5 42 -309.5zM342.003 733.004c0 -101.333 7.5 -191.833 22.5 -271.5
s39.167 -147 72.5 -202s76.5 -97 129.5 -126s117.5 -43.5 193.5 -43.5s140.5 14.5 193.5 43.5s96 71 129 126s56.833 122.333 71.5 202s22 170.167 22 271.5s-7.33301 191.833 -22 271.5s-38.5 146.834 -71.5 201.501s-75.667 96.334 -128 125.001s-116.5 43 -192.5 43
s-140.667 -14.333 -194 -43s-96.833 -70.334 -130.5 -125.001s-58 -121.834 -73 -201.501s-22.5 -170.167 -22.5 -271.5zM861.003 1579l-78 -0.00195312c-27.333 18.667 -57 41.834 -89 69.501s-63 56.167 -93 85.5s-57.333 57.5 -82 84.5s-43.334 49.5 -56.001 67.5v21h219
c10.667 -22.667 23.167 -47.5 37.5 -74.5s29.5 -54 45.5 -81s32.333 -53.167 49 -78.5s32.334 -47.666 47.001 -66.999v-27z" />
    <glyph glyph-name="Oacute" unicode="&#xd3;" horiz-adv-x="1520" 
d="M1403 733c0 -112.667 -13.9971 -215.33 -41.9971 -307.997s-69.333 -172 -124 -238s-122 -117 -202 -153s-171.667 -54 -275 -54c-108.667 0 -203.334 18 -284.001 54s-147.667 87 -201 153s-93.333 145.5 -120 238.5s-40 196.167 -40 309.5s13.333 216.166 40 308.499
s66.667 171.166 120 236.499s120.666 115.833 201.999 151.5s176.333 53.5 285 53.5c103.333 0 194.666 -17.833 273.999 -53.5s146.333 -86.334 201 -152.001s96 -144.667 124 -237s42 -195.5 42 -309.5zM342.003 733.004c0 -101.333 7.5 -191.833 22.5 -271.5
s39.167 -147 72.5 -202s76.5 -97 129.5 -126s117.5 -43.5 193.5 -43.5s140.5 14.5 193.5 43.5s96 71 129 126s56.833 122.333 71.5 202s22 170.167 22 271.5s-7.33301 191.833 -22 271.5s-38.5 146.834 -71.5 201.501s-75.667 96.334 -128 125.001s-116.5 43 -192.5 43
s-140.667 -14.333 -194 -43s-96.833 -70.334 -130.5 -125.001s-58 -121.834 -73 -201.501s-22.5 -170.167 -22.5 -271.5zM649.003 1606c15.333 19.333 31.168 41.668 47.501 67.001s32.333 51.5 48 78.5l45 81c14.333 27 26.833 51.833 37.5 74.5h219v-21
c-12.667 -18 -31.334 -40.5 -56.001 -67.5s-52 -55.167 -82 -84.5s-60.833 -57.833 -92.5 -85.5s-61.167 -50.834 -88.5 -69.501h-78v27z" />
    <glyph glyph-name="Ocircumflex" unicode="&#xd4;" horiz-adv-x="1520" 
d="M1403 733c0 -112.667 -13.9971 -215.33 -41.9971 -307.997s-69.333 -172 -124 -238s-122 -117 -202 -153s-171.667 -54 -275 -54c-108.667 0 -203.334 18 -284.001 54s-147.667 87 -201 153s-93.333 145.5 -120 238.5s-40 196.167 -40 309.5s13.333 216.166 40 308.499
s66.667 171.166 120 236.499s120.666 115.833 201.999 151.5s176.333 53.5 285 53.5c103.333 0 194.666 -17.833 273.999 -53.5s146.333 -86.334 201 -152.001s96 -144.667 124 -237s42 -195.5 42 -309.5zM342.003 733.004c0 -101.333 7.5 -191.833 22.5 -271.5
s39.167 -147 72.5 -202s76.5 -97 129.5 -126s117.5 -43.5 193.5 -43.5s140.5 14.5 193.5 43.5s96 71 129 126s56.833 122.333 71.5 202s22 170.167 22 271.5s-7.33301 191.833 -22 271.5s-38.5 146.834 -71.5 201.501s-75.667 96.334 -128 125.001s-116.5 43 -192.5 43
s-140.667 -14.333 -194 -43s-96.833 -70.334 -130.5 -125.001s-58 -121.834 -73 -201.501s-22.5 -170.167 -22.5 -271.5zM459.003 1606l52.998 67l57.5 78.5c19 27 36.833 54 53.5 81s30.334 51.833 41.001 74.5h194c10.667 -22.667 24.334 -47.5 41.001 -74.5
s34.5 -54 53.5 -81l57.5 -78.5l53 -67v-27h-80c-39.333 22.667 -78.666 50.834 -117.999 84.501s-74.333 66.834 -105 99.501c-31.333 -32.667 -66.333 -65.834 -105 -99.501s-77.334 -61.834 -116.001 -84.501h-80v27z" />
    <glyph glyph-name="Otilde" unicode="&#xd5;" horiz-adv-x="1520" 
d="M1403 733c0 -112.667 -13.9971 -215.33 -41.9971 -307.997s-69.333 -172 -124 -238s-122 -117 -202 -153s-171.667 -54 -275 -54c-108.667 0 -203.334 18 -284.001 54s-147.667 87 -201 153s-93.333 145.5 -120 238.5s-40 196.167 -40 309.5s13.333 216.166 40 308.499
s66.667 171.166 120 236.499s120.666 115.833 201.999 151.5s176.333 53.5 285 53.5c103.333 0 194.666 -17.833 273.999 -53.5s146.333 -86.334 201 -152.001s96 -144.667 124 -237s42 -195.5 42 -309.5zM342.003 733.004c0 -101.333 7.5 -191.833 22.5 -271.5
s39.167 -147 72.5 -202s76.5 -97 129.5 -126s117.5 -43.5 193.5 -43.5s140.5 14.5 193.5 43.5s96 71 129 126s56.833 122.333 71.5 202s22 170.167 22 271.5s-7.33301 191.833 -22 271.5s-38.5 146.834 -71.5 201.501s-75.667 96.334 -128 125.001s-116.5 43 -192.5 43
s-140.667 -14.333 -194 -43s-96.833 -70.334 -130.5 -125.001s-58 -121.834 -73 -201.501s-22.5 -170.167 -22.5 -271.5zM918.003 1712c20 0 36.168 2.99902 48.501 8.99902s22 14.167 29 24.5s12 22 15 35s5.5 26.5 7.5 40.5h92c-2 -31.333 -7.5 -61.5 -16.5 -90.5
s-22.167 -54.833 -39.5 -77.5s-39 -40.667 -65 -54s-57.333 -20 -94 -20s-69.834 6.66699 -99.501 20s-57.334 28.166 -83.001 44.499l-72 44.5c-22.333 13.333 -44.5 20 -66.5 20c-20.667 0 -37 -3 -49 -9s-21.5 -14 -28.5 -24s-12.167 -21.5 -15.5 -34.5
s-6 -26.5 -8 -40.5h-92c2 31.333 7.5 61.333 16.5 90s22.333 54.334 40 77.001s39.667 40.667 66 54s57.833 20 94.5 20s69.834 -6.66699 99.501 -20s57.334 -28.166 83.001 -44.499l72 -44.5c22.333 -13.333 44.166 -20 65.499 -20z" />
    <glyph glyph-name="Odieresis" unicode="&#xd6;" horiz-adv-x="1520" 
d="M1403 733c0 -112.667 -13.9971 -215.33 -41.9971 -307.997s-69.333 -172 -124 -238s-122 -117 -202 -153s-171.667 -54 -275 -54c-108.667 0 -203.334 18 -284.001 54s-147.667 87 -201 153s-93.333 145.5 -120 238.5s-40 196.167 -40 309.5s13.333 216.166 40 308.499
s66.667 171.166 120 236.499s120.666 115.833 201.999 151.5s176.333 53.5 285 53.5c103.333 0 194.666 -17.833 273.999 -53.5s146.333 -86.334 201 -152.001s96 -144.667 124 -237s42 -195.5 42 -309.5zM342.003 733.004c0 -101.333 7.5 -191.833 22.5 -271.5
s39.167 -147 72.5 -202s76.5 -97 129.5 -126s117.5 -43.5 193.5 -43.5s140.5 14.5 193.5 43.5s96 71 129 126s56.833 122.333 71.5 202s22 170.167 22 271.5s-7.33301 191.833 -22 271.5s-38.5 146.834 -71.5 201.501s-75.667 96.334 -128 125.001s-116.5 43 -192.5 43
s-140.667 -14.333 -194 -43s-96.833 -70.334 -130.5 -125.001s-58 -121.834 -73 -201.501s-22.5 -170.167 -22.5 -271.5zM455.003 1747c0 21.333 2.66699 39.334 8 54.001s12.666 26.5 21.999 35.5s20.333 15.5 33 19.5s26.334 6 41.001 6s28.334 -2 41.001 -6
s23.834 -10.5 33.501 -19.5s17.167 -20.833 22.5 -35.5s8 -32.667 8 -54c0 -20.667 -2.66699 -38.334 -8 -53.001s-12.833 -26.667 -22.5 -36s-20.834 -16 -33.501 -20s-26.334 -6 -41.001 -6c-30 0 -54.833 8.66699 -74.5 26s-29.5 47 -29.5 89zM844.003 1747
c0 21.333 2.66699 39.334 8 54.001s12.666 26.5 21.999 35.5s20.333 15.5 33 19.5s26.334 6 41.001 6s28.334 -2 41.001 -6s23.834 -10.5 33.501 -19.5s17.167 -20.833 22.5 -35.5s8 -32.667 8 -54c0 -20.667 -2.66699 -38.334 -8 -53.001s-12.833 -26.667 -22.5 -36
s-20.834 -16 -33.501 -20s-26.334 -6 -41.001 -6c-30 0 -54.833 8.66699 -74.5 26s-29.5 47 -29.5 89z" />
    <glyph glyph-name="multiply" unicode="&#xd7;" 
d="M571 647l-340 -340l-86 88l340 340l-340 338l86 86l340 -340l340 342l86 -88l-340 -340l340 -340l-86 -86z" />
    <glyph glyph-name="Oslash" unicode="&#xd8;" horiz-adv-x="1520" 
d="M1163 1354c78.667 -64.667 138.334 -149.665 179.001 -254.998s61 -227.333 61 -366c0 -112.667 -14 -215.334 -42 -308.001s-69.333 -172 -124 -238s-122 -117 -202 -153s-171.667 -54 -275 -54c-62 0 -119.5 5.83301 -172.5 17.5s-101.5 28.834 -145.5 51.501l-71 -131
h-121l104 188c-80.667 65.333 -140.667 151.5 -180 258.5s-59 230.5 -59 370.5c0 113.333 13.333 216.166 40 308.499s66.667 171.166 120 236.499s120.666 115.833 201.999 151.5s176.333 53.5 285 53.5c60.667 0 117 -6.5 169 -19.5s100 -31.167 144 -54.5l76 135h119z
M342 733.002c0 -103.333 7.50098 -194.331 22.501 -272.998s39.5 -146 73.5 -202l572 1034c-62.667 54.667 -145.334 82 -248.001 82c-76 0 -140.667 -14.333 -194 -43s-96.833 -70.334 -130.5 -125.001s-58 -121.834 -73 -201.501s-22.5 -170.167 -22.5 -271.5z
M1176 733.004c0 102 -7.49902 192.5 -22.499 271.5s-39.167 146.167 -72.5 201.5l-571 -1036c63.333 -53.333 146.666 -80 249.999 -80c76 0 140.5 14.5 193.5 43.5s96 71 129 126s56.833 122.333 71.5 202s22 170.167 22 271.5z" />
    <glyph glyph-name="Ugrave" unicode="&#xd9;" horiz-adv-x="1468" 
d="M741 -20c-80.667 0 -153.001 8.49707 -217.001 25.4971s-118.167 44 -162.5 81s-78.166 84.667 -101.499 143s-35 129.166 -35 212.499v795c0 30 -4.5 54.167 -13.5 72.5s-21.167 32.5 -36.5 42.5s-33.166 16.5 -53.499 19.5s-41.833 4.5 -64.5 4.5h-26v86h596v-86h-27
c-22.667 0 -44.334 -1.66699 -65.001 -5s-38.5 -10.166 -53.5 -20.499s-27 -25.166 -36 -44.499s-13.5 -45 -13.5 -77v-799c0 -59.333 8.5 -109.833 25.5 -151.5s40.667 -75.5 71 -101.5s66.333 -45 108 -57s87.5 -18 137.5 -18c59.333 0 110.5 8 153.5 24
s78.667 38.167 107 66.5s49.333 62 63 101s20.5 81.833 20.5 128.5v815c0 30 -4.5 54.167 -13.5 72.5s-21.167 32.5 -36.5 42.5s-33.166 16.5 -53.499 19.5s-41.833 4.5 -64.5 4.5h-26v86h514v-86h-27c-22.667 0 -44.334 -1.66699 -65.001 -5s-38.5 -10.166 -53.5 -20.499
s-27 -25.166 -36 -44.499s-13.5 -45 -13.5 -77v-811c0 -68 -10.833 -129.167 -32.5 -183.5s-53.667 -100.333 -96 -138s-94.833 -66.5 -157.5 -86.5s-134.667 -30 -216 -30zM851.999 1579l-78 -0.00195312c-27.333 18.667 -57 41.834 -89 69.501s-63 56.167 -93 85.5
s-57.333 57.5 -82 84.5s-43.334 49.5 -56.001 67.5v21h219c10.667 -22.667 23.167 -47.5 37.5 -74.5s29.5 -54 45.5 -81s32.333 -53.167 49 -78.5s32.334 -47.666 47.001 -66.999v-27z" />
    <glyph glyph-name="Uacute" unicode="&#xda;" horiz-adv-x="1468" 
d="M741 -20c-80.667 0 -153.001 8.49707 -217.001 25.4971s-118.167 44 -162.5 81s-78.166 84.667 -101.499 143s-35 129.166 -35 212.499v795c0 30 -4.5 54.167 -13.5 72.5s-21.167 32.5 -36.5 42.5s-33.166 16.5 -53.499 19.5s-41.833 4.5 -64.5 4.5h-26v86h596v-86h-27
c-22.667 0 -44.334 -1.66699 -65.001 -5s-38.5 -10.166 -53.5 -20.499s-27 -25.166 -36 -44.499s-13.5 -45 -13.5 -77v-799c0 -59.333 8.5 -109.833 25.5 -151.5s40.667 -75.5 71 -101.5s66.333 -45 108 -57s87.5 -18 137.5 -18c59.333 0 110.5 8 153.5 24
s78.667 38.167 107 66.5s49.333 62 63 101s20.5 81.833 20.5 128.5v815c0 30 -4.5 54.167 -13.5 72.5s-21.167 32.5 -36.5 42.5s-33.166 16.5 -53.499 19.5s-41.833 4.5 -64.5 4.5h-26v86h514v-86h-27c-22.667 0 -44.334 -1.66699 -65.001 -5s-38.5 -10.166 -53.5 -20.499
s-27 -25.166 -36 -44.499s-13.5 -45 -13.5 -77v-811c0 -68 -10.833 -129.167 -32.5 -183.5s-53.667 -100.333 -96 -138s-94.833 -66.5 -157.5 -86.5s-134.667 -30 -216 -30zM648.999 1606c15.333 19.333 31.168 41.668 47.501 67.001s32.333 51.5 48 78.5l45 81
c14.333 27 26.833 51.833 37.5 74.5h219v-21c-12.667 -18 -31.334 -40.5 -56.001 -67.5s-52 -55.167 -82 -84.5s-60.833 -57.833 -92.5 -85.5s-61.167 -50.834 -88.5 -69.501h-78v27z" />
    <glyph glyph-name="Ucircumflex" unicode="&#xdb;" horiz-adv-x="1468" 
d="M741 -20c-80.667 0 -153.001 8.49707 -217.001 25.4971s-118.167 44 -162.5 81s-78.166 84.667 -101.499 143s-35 129.166 -35 212.499v795c0 30 -4.5 54.167 -13.5 72.5s-21.167 32.5 -36.5 42.5s-33.166 16.5 -53.499 19.5s-41.833 4.5 -64.5 4.5h-26v86h596v-86h-27
c-22.667 0 -44.334 -1.66699 -65.001 -5s-38.5 -10.166 -53.5 -20.499s-27 -25.166 -36 -44.499s-13.5 -45 -13.5 -77v-799c0 -59.333 8.5 -109.833 25.5 -151.5s40.667 -75.5 71 -101.5s66.333 -45 108 -57s87.5 -18 137.5 -18c59.333 0 110.5 8 153.5 24
s78.667 38.167 107 66.5s49.333 62 63 101s20.5 81.833 20.5 128.5v815c0 30 -4.5 54.167 -13.5 72.5s-21.167 32.5 -36.5 42.5s-33.166 16.5 -53.499 19.5s-41.833 4.5 -64.5 4.5h-26v86h514v-86h-27c-22.667 0 -44.334 -1.66699 -65.001 -5s-38.5 -10.166 -53.5 -20.499
s-27 -25.166 -36 -44.499s-13.5 -45 -13.5 -77v-811c0 -68 -10.833 -129.167 -32.5 -183.5s-53.667 -100.333 -96 -138s-94.833 -66.5 -157.5 -86.5s-134.667 -30 -216 -30zM470.999 1606l52.998 67l57.5 78.5c19 27 36.833 54 53.5 81s30.334 51.833 41.001 74.5h194
c10.667 -22.667 24.334 -47.5 41.001 -74.5s34.5 -54 53.5 -81l57.5 -78.5l53 -67v-27h-80c-39.333 22.667 -78.666 50.834 -117.999 84.501s-74.333 66.834 -105 99.501c-31.333 -32.667 -66.333 -65.834 -105 -99.501s-77.334 -61.834 -116.001 -84.501h-80v27z" />
    <glyph glyph-name="Udieresis" unicode="&#xdc;" horiz-adv-x="1468" 
d="M741 -20c-80.667 0 -153.001 8.49707 -217.001 25.4971s-118.167 44 -162.5 81s-78.166 84.667 -101.499 143s-35 129.166 -35 212.499v795c0 30 -4.5 54.167 -13.5 72.5s-21.167 32.5 -36.5 42.5s-33.166 16.5 -53.499 19.5s-41.833 4.5 -64.5 4.5h-26v86h596v-86h-27
c-22.667 0 -44.334 -1.66699 -65.001 -5s-38.5 -10.166 -53.5 -20.499s-27 -25.166 -36 -44.499s-13.5 -45 -13.5 -77v-799c0 -59.333 8.5 -109.833 25.5 -151.5s40.667 -75.5 71 -101.5s66.333 -45 108 -57s87.5 -18 137.5 -18c59.333 0 110.5 8 153.5 24
s78.667 38.167 107 66.5s49.333 62 63 101s20.5 81.833 20.5 128.5v815c0 30 -4.5 54.167 -13.5 72.5s-21.167 32.5 -36.5 42.5s-33.166 16.5 -53.499 19.5s-41.833 4.5 -64.5 4.5h-26v86h514v-86h-27c-22.667 0 -44.334 -1.66699 -65.001 -5s-38.5 -10.166 -53.5 -20.499
s-27 -25.166 -36 -44.499s-13.5 -45 -13.5 -77v-811c0 -68 -10.833 -129.167 -32.5 -183.5s-53.667 -100.333 -96 -138s-94.833 -66.5 -157.5 -86.5s-134.667 -30 -216 -30zM476.999 1747c0 21.333 2.66699 39.334 8 54.001s12.666 26.5 21.999 35.5s20.333 15.5 33 19.5
s26.334 6 41.001 6s28.334 -2 41.001 -6s23.834 -10.5 33.501 -19.5s17.167 -20.833 22.5 -35.5s8 -32.667 8 -54c0 -20.667 -2.66699 -38.334 -8 -53.001s-12.833 -26.667 -22.5 -36s-20.834 -16 -33.501 -20s-26.334 -6 -41.001 -6c-30 0 -54.833 8.66699 -74.5 26
s-29.5 47 -29.5 89zM865.999 1747c0 21.333 2.66699 39.334 8 54.001s12.666 26.5 21.999 35.5s20.333 15.5 33 19.5s26.334 6 41.001 6s28.334 -2 41.001 -6s23.834 -10.5 33.501 -19.5s17.167 -20.833 22.5 -35.5s8 -32.667 8 -54c0 -20.667 -2.66699 -38.334 -8 -53.001
s-12.833 -26.667 -22.5 -36s-20.834 -16 -33.501 -20s-26.334 -6 -41.001 -6c-30 0 -54.833 8.66699 -74.5 26s-29.5 47 -29.5 89z" />
    <glyph glyph-name="Yacute" unicode="&#xdd;" horiz-adv-x="1280" 
d="M326 0v85.9961h47c22.667 0 44.167 1.5 64.5 4.5s38.166 9.16699 53.499 18.5s27.5 23.166 36.5 41.499s13.5 42.5 13.5 72.5v387l-379 658c-11.333 19.333 -22 35.833 -32 49.5s-20.5 24.834 -31.5 33.501s-23.167 15 -36.5 19s-28.666 6 -45.999 6h-26v86h563v-86h-76
c-18.667 0 -33.834 -1.66699 -45.501 -5s-20.834 -8 -27.501 -14s-11.167 -13 -13.5 -21s-3.5 -16.333 -3.5 -25c0 -19.333 4.16699 -38.666 12.5 -57.999s16.5 -36.333 24.5 -51l151 -274c24 -42 44.333 -83.5 61 -124.5s30.667 -77.5 42 -109.5c6 14.667 13.5 31 22.5 49
l30 57.5l34.5 63l36 64.5l131 235c13.333 23.333 22.833 45.5 28.5 66.5s8.5 39.833 8.5 56.5c0 30 -10.667 52.5 -32 67.5s-51.666 22.5 -90.999 22.5h-60v86h500v-86h-24c-14.667 0 -28.5 -2.5 -41.5 -7.5s-26.167 -13.667 -39.5 -26s-27.166 -28.666 -41.499 -48.999
s-30.166 -45.833 -47.499 -76.5l-344 -607v-377c0 -32 4.33301 -57.667 13 -77s20.667 -34.166 36 -44.499s33.166 -17.166 53.499 -20.499s41.833 -5 64.5 -5h48v-86h-637zM567 1606c15.333 19.333 31.168 41.668 47.501 67.001s32.333 51.5 48 78.5l45 81
c14.333 27 26.833 51.833 37.5 74.5h219v-21c-12.667 -18 -31.334 -40.5 -56.001 -67.5s-52 -55.167 -82 -84.5s-60.833 -57.833 -92.5 -85.5s-61.167 -50.834 -88.5 -69.501h-78v27z" />
    <glyph glyph-name="Thorn" unicode="&#xde;" horiz-adv-x="1237" 
d="M78 0v86h26c23.333 0 45.166 1.66699 65.499 5s38.166 10.166 53.499 20.499s27.333 25.166 36 44.499s13 45 13 77v996c0 32 -4.33301 57.667 -13 77s-20.667 34.166 -36 44.499s-33.166 17.166 -53.499 20.499s-42.166 5 -65.499 5h-26v86h616v-86h-47
c-22.667 0 -44.334 -1.66699 -65.001 -5s-38.5 -10.166 -53.5 -20.499s-27 -25.166 -36 -44.499s-13.5 -45 -13.5 -77v-62h174c172 0 299 -34.5 381 -103.5s123 -170.167 123 -303.5c0 -60.667 -9.5 -118 -28.5 -172s-50.167 -101.333 -93.5 -142s-100 -72.667 -170 -96
s-155.667 -35 -257 -35h-129v-82c0 -32 4.5 -57.667 13.5 -77s21 -34.166 36 -44.499s32.833 -17.166 53.5 -20.499s42.334 -5 65.001 -5h47v-86h-616zM479 412l108.998 -0.000976562c62 0 115 5.5 159 16.5s80 29.667 108 56s48.5 61.333 61.5 105
s19.5 97.834 19.5 162.501c0 57.333 -5.66699 106 -17 146s-29.666 72.667 -54.999 98s-58.166 43.833 -98.499 55.5s-89.5 17.5 -147.5 17.5h-139v-657z" />
    <glyph glyph-name="germandbls" unicode="&#xdf;" horiz-adv-x="1325" 
d="M887 78c50 0 91.1621 15.3379 123.495 46.0049s48.5 77.334 48.5 140.001c0 22.667 -2.5 43.667 -7.5 63s-14.833 38 -29.5 56s-35 36 -61 54s-59.667 37 -101 57c-42.667 21.333 -80.334 42.333 -113.001 63s-59.834 43.667 -81.501 69s-38 54 -49 86
s-16.5 69.667 -16.5 113c0 41.333 6.83301 79 20.5 113s34.334 63.167 62.001 87.5s62.667 43.166 105 56.499s92.5 20 150.5 20c0 64.667 -4.66699 120.167 -14 166.5s-24.333 84.5 -45 114.5s-47.167 52 -79.5 66s-71.5 21 -117.5 21c-41.333 0 -77.5 -6.66699 -108.5 -20
s-56.833 -32.166 -77.5 -56.499s-36.167 -53.833 -46.5 -88.5s-15.5 -73.667 -15.5 -117v-1188h-387v86h27c23.333 0 45.166 1.66699 65.499 5s38 10.166 53 20.499s27 25.166 36 44.499s13.5 45 13.5 77v768h-166v97h166v61c0 75.333 11.333 138.666 34 189.999
s53.834 92.833 93.501 124.5s86.334 54.5 140.001 68.5s111.834 21 174.501 21c85.333 0 156.333 -12.167 213 -36.5s102.167 -60 136.5 -107s58.833 -105.167 73.5 -174.5s22.334 -149 23.001 -239h-149c-72.667 0 -126 -13.833 -160 -41.5s-51 -69.167 -51 -124.5
c0 -20.667 3.33301 -39.5 10 -56.5s18.334 -33.333 35.001 -49s38.667 -31.334 66 -47.001s61.333 -33.167 102 -52.5c51.333 -23.333 93.333 -48.166 126 -74.499s58.334 -53.833 77.001 -82.5s31.5 -58 38.5 -88s10.5 -60.333 10.5 -91c0 -52 -8 -98 -24 -138
s-38.833 -73.333 -68.5 -100s-65.834 -46.834 -108.501 -60.501s-91 -20.5 -145 -20.5c-48 0 -91.667 4.5 -131 13.5s-73 22.667 -101 41s-49.667 41 -65 68s-23 58.5 -23 94.5c0 27.333 4 50.166 12 68.499s18 32.833 30 43.5s24.833 18.167 38.5 22.5
s25.834 6.5 36.501 6.5c0 -36 3.5 -69.667 10.5 -101s18.333 -58.833 34 -82.5s36.334 -42.334 62.001 -56.001s57.167 -20.5 94.5 -20.5z" />
    <glyph glyph-name="agrave" unicode="&#xe0;" horiz-adv-x="1153" 
d="M301 297c0 -64 13.498 -111.831 40.498 -143.498s68.833 -47.5 125.5 -47.5c41.333 0 78.833 6.66699 112.5 20s62.334 32.333 86.001 57s41.834 54.667 54.501 90s19 74.666 19 117.999v166l-131 -6c-58 -2.66699 -106.5 -9.83398 -145.5 -21.501s-70.5 -28 -94.5 -49
s-41.167 -46.833 -51.5 -77.5s-15.5 -66 -15.5 -106zM548.998 1016c-39.333 0 -71.168 -5.5 -95.501 -16.5s-43.333 -26.5 -57 -46.5s-22.834 -43.667 -27.501 -71s-7 -57 -7 -89c-56.667 0 -99.834 9.66699 -129.501 29s-44.5 52.666 -44.5 99.999
c0 35.333 9.66699 65.333 29 90s45.833 44.834 79.5 60.501s72.834 27.167 117.501 34.5s92.334 11 143.001 11c62.667 0 117.334 -6.16699 164.001 -18.5s85.667 -32.5 117 -60.5s54.833 -64.5 70.5 -109.5s23.5 -100.167 23.5 -165.5v-531
c0 -28.667 2.33301 -52.334 7 -71.001s12 -33.667 22 -45s23.167 -19.333 39.5 -24s35.833 -7 58.5 -7h6v-86h-277l-32 176h-17c-21.333 -28.667 -42 -55 -62 -79s-42 -44.667 -66 -62s-51.167 -30.833 -81.5 -40.5s-66.833 -14.5 -109.5 -14.5
c-45.333 0 -87.5 6.5 -126.5 19.5s-72.667 33 -101 60s-50.5 61 -66.5 102s-24 89.5 -24 145.5c0 108.667 38.667 189.334 116 242.001s194.333 81.334 351 86.001l170 6v123c0 36.667 -2 70.5 -6 101.5s-12.667 57.667 -26 80s-32.5 39.666 -57.5 51.999
s-58.5 18.5 -100.5 18.5zM666.996 1241l-78 -0.00195312c-27.333 18.667 -57 41.834 -89 69.501s-63 56.167 -93 85.5s-57.333 57.5 -82 84.5s-43.334 49.5 -56.001 67.5v21h219c10.667 -22.667 23.167 -47.5 37.5 -74.5s29.5 -54 45.5 -81s32.333 -53.167 49 -78.5
s32.334 -47.666 47.001 -66.999v-27z" />
    <glyph glyph-name="aacute" unicode="&#xe1;" horiz-adv-x="1153" 
d="M301 297c0 -64 13.498 -111.831 40.498 -143.498s68.833 -47.5 125.5 -47.5c41.333 0 78.833 6.66699 112.5 20s62.334 32.333 86.001 57s41.834 54.667 54.501 90s19 74.666 19 117.999v166l-131 -6c-58 -2.66699 -106.5 -9.83398 -145.5 -21.501s-70.5 -28 -94.5 -49
s-41.167 -46.833 -51.5 -77.5s-15.5 -66 -15.5 -106zM548.998 1016c-39.333 0 -71.168 -5.5 -95.501 -16.5s-43.333 -26.5 -57 -46.5s-22.834 -43.667 -27.501 -71s-7 -57 -7 -89c-56.667 0 -99.834 9.66699 -129.501 29s-44.5 52.666 -44.5 99.999
c0 35.333 9.66699 65.333 29 90s45.833 44.834 79.5 60.501s72.834 27.167 117.501 34.5s92.334 11 143.001 11c62.667 0 117.334 -6.16699 164.001 -18.5s85.667 -32.5 117 -60.5s54.833 -64.5 70.5 -109.5s23.5 -100.167 23.5 -165.5v-531
c0 -28.667 2.33301 -52.334 7 -71.001s12 -33.667 22 -45s23.167 -19.333 39.5 -24s35.833 -7 58.5 -7h6v-86h-277l-32 176h-17c-21.333 -28.667 -42 -55 -62 -79s-42 -44.667 -66 -62s-51.167 -30.833 -81.5 -40.5s-66.833 -14.5 -109.5 -14.5
c-45.333 0 -87.5 6.5 -126.5 19.5s-72.667 33 -101 60s-50.5 61 -66.5 102s-24 89.5 -24 145.5c0 108.667 38.667 189.334 116 242.001s194.333 81.334 351 86.001l170 6v123c0 36.667 -2 70.5 -6 101.5s-12.667 57.667 -26 80s-32.5 39.666 -57.5 51.999
s-58.5 18.5 -100.5 18.5zM470.996 1268c15.333 19.333 31.168 41.668 47.501 67.001s32.333 51.5 48 78.5l45 81c14.333 27 26.833 51.833 37.5 74.5h219v-21c-12.667 -18 -31.334 -40.5 -56.001 -67.5s-52 -55.167 -82 -84.5s-60.833 -57.833 -92.5 -85.5
s-61.167 -50.834 -88.5 -69.501h-78v27z" />
    <glyph glyph-name="acircumflex" unicode="&#xe2;" horiz-adv-x="1153" 
d="M301 297c0 -64 13.498 -111.831 40.498 -143.498s68.833 -47.5 125.5 -47.5c41.333 0 78.833 6.66699 112.5 20s62.334 32.333 86.001 57s41.834 54.667 54.501 90s19 74.666 19 117.999v166l-131 -6c-58 -2.66699 -106.5 -9.83398 -145.5 -21.501s-70.5 -28 -94.5 -49
s-41.167 -46.833 -51.5 -77.5s-15.5 -66 -15.5 -106zM548.998 1016c-39.333 0 -71.168 -5.5 -95.501 -16.5s-43.333 -26.5 -57 -46.5s-22.834 -43.667 -27.501 -71s-7 -57 -7 -89c-56.667 0 -99.834 9.66699 -129.501 29s-44.5 52.666 -44.5 99.999
c0 35.333 9.66699 65.333 29 90s45.833 44.834 79.5 60.501s72.834 27.167 117.501 34.5s92.334 11 143.001 11c62.667 0 117.334 -6.16699 164.001 -18.5s85.667 -32.5 117 -60.5s54.833 -64.5 70.5 -109.5s23.5 -100.167 23.5 -165.5v-531
c0 -28.667 2.33301 -52.334 7 -71.001s12 -33.667 22 -45s23.167 -19.333 39.5 -24s35.833 -7 58.5 -7h6v-86h-277l-32 176h-17c-21.333 -28.667 -42 -55 -62 -79s-42 -44.667 -66 -62s-51.167 -30.833 -81.5 -40.5s-66.833 -14.5 -109.5 -14.5
c-45.333 0 -87.5 6.5 -126.5 19.5s-72.667 33 -101 60s-50.5 61 -66.5 102s-24 89.5 -24 145.5c0 108.667 38.667 189.334 116 242.001s194.333 81.334 351 86.001l170 6v123c0 36.667 -2 70.5 -6 101.5s-12.667 57.667 -26 80s-32.5 39.666 -57.5 51.999
s-58.5 18.5 -100.5 18.5zM260.996 1268l52.998 67l57.5 78.5c19 27 36.833 54 53.5 81s30.334 51.833 41.001 74.5h194c10.667 -22.667 24.334 -47.5 41.001 -74.5s34.5 -54 53.5 -81l57.5 -78.5l53 -67v-27h-80c-39.333 22.667 -78.666 50.834 -117.999 84.501
s-74.333 66.834 -105 99.501c-31.333 -32.667 -66.333 -65.834 -105 -99.501s-77.334 -61.834 -116.001 -84.501h-80v27z" />
    <glyph glyph-name="atilde" unicode="&#xe3;" horiz-adv-x="1153" 
d="M301 297c0 -64 13.498 -111.831 40.498 -143.498s68.833 -47.5 125.5 -47.5c41.333 0 78.833 6.66699 112.5 20s62.334 32.333 86.001 57s41.834 54.667 54.501 90s19 74.666 19 117.999v166l-131 -6c-58 -2.66699 -106.5 -9.83398 -145.5 -21.501s-70.5 -28 -94.5 -49
s-41.167 -46.833 -51.5 -77.5s-15.5 -66 -15.5 -106zM548.998 1016c-39.333 0 -71.168 -5.5 -95.501 -16.5s-43.333 -26.5 -57 -46.5s-22.834 -43.667 -27.501 -71s-7 -57 -7 -89c-56.667 0 -99.834 9.66699 -129.501 29s-44.5 52.666 -44.5 99.999
c0 35.333 9.66699 65.333 29 90s45.833 44.834 79.5 60.501s72.834 27.167 117.501 34.5s92.334 11 143.001 11c62.667 0 117.334 -6.16699 164.001 -18.5s85.667 -32.5 117 -60.5s54.833 -64.5 70.5 -109.5s23.5 -100.167 23.5 -165.5v-531
c0 -28.667 2.33301 -52.334 7 -71.001s12 -33.667 22 -45s23.167 -19.333 39.5 -24s35.833 -7 58.5 -7h6v-86h-277l-32 176h-17c-21.333 -28.667 -42 -55 -62 -79s-42 -44.667 -66 -62s-51.167 -30.833 -81.5 -40.5s-66.833 -14.5 -109.5 -14.5
c-45.333 0 -87.5 6.5 -126.5 19.5s-72.667 33 -101 60s-50.5 61 -66.5 102s-24 89.5 -24 145.5c0 108.667 38.667 189.334 116 242.001s194.333 81.334 351 86.001l170 6v123c0 36.667 -2 70.5 -6 101.5s-12.667 57.667 -26 80s-32.5 39.666 -57.5 51.999
s-58.5 18.5 -100.5 18.5zM742.996 1374c20 0 36.168 2.99902 48.501 8.99902s22 14.167 29 24.5s12 22 15 35s5.5 26.5 7.5 40.5h92c-2 -31.333 -7.5 -61.5 -16.5 -90.5s-22.167 -54.833 -39.5 -77.5s-39 -40.667 -65 -54s-57.333 -20 -94 -20s-69.834 6.66699 -99.501 20
s-57.334 28.166 -83.001 44.499l-72 44.5c-22.333 13.333 -44.5 20 -66.5 20c-20.667 0 -37 -3 -49 -9s-21.5 -14 -28.5 -24s-12.167 -21.5 -15.5 -34.5s-6 -26.5 -8 -40.5h-92c2 31.333 7.5 61.333 16.5 90s22.333 54.334 40 77.001s39.667 40.667 66 54s57.833 20 94.5 20
s69.834 -6.66699 99.501 -20s57.334 -28.166 83.001 -44.499l72 -44.5c22.333 -13.333 44.166 -20 65.499 -20z" />
    <glyph glyph-name="adieresis" unicode="&#xe4;" horiz-adv-x="1153" 
d="M301 297c0 -64 13.498 -111.831 40.498 -143.498s68.833 -47.5 125.5 -47.5c41.333 0 78.833 6.66699 112.5 20s62.334 32.333 86.001 57s41.834 54.667 54.501 90s19 74.666 19 117.999v166l-131 -6c-58 -2.66699 -106.5 -9.83398 -145.5 -21.501s-70.5 -28 -94.5 -49
s-41.167 -46.833 -51.5 -77.5s-15.5 -66 -15.5 -106zM548.998 1016c-39.333 0 -71.168 -5.5 -95.501 -16.5s-43.333 -26.5 -57 -46.5s-22.834 -43.667 -27.501 -71s-7 -57 -7 -89c-56.667 0 -99.834 9.66699 -129.501 29s-44.5 52.666 -44.5 99.999
c0 35.333 9.66699 65.333 29 90s45.833 44.834 79.5 60.501s72.834 27.167 117.501 34.5s92.334 11 143.001 11c62.667 0 117.334 -6.16699 164.001 -18.5s85.667 -32.5 117 -60.5s54.833 -64.5 70.5 -109.5s23.5 -100.167 23.5 -165.5v-531
c0 -28.667 2.33301 -52.334 7 -71.001s12 -33.667 22 -45s23.167 -19.333 39.5 -24s35.833 -7 58.5 -7h6v-86h-277l-32 176h-17c-21.333 -28.667 -42 -55 -62 -79s-42 -44.667 -66 -62s-51.167 -30.833 -81.5 -40.5s-66.833 -14.5 -109.5 -14.5
c-45.333 0 -87.5 6.5 -126.5 19.5s-72.667 33 -101 60s-50.5 61 -66.5 102s-24 89.5 -24 145.5c0 108.667 38.667 189.334 116 242.001s194.333 81.334 351 86.001l170 6v123c0 36.667 -2 70.5 -6 101.5s-12.667 57.667 -26 80s-32.5 39.666 -57.5 51.999
s-58.5 18.5 -100.5 18.5zM256.996 1409c0 21.333 2.66699 39.334 8 54.001s12.666 26.5 21.999 35.5s20.333 15.5 33 19.5s26.334 6 41.001 6s28.334 -2 41.001 -6s23.834 -10.5 33.501 -19.5s17.167 -20.833 22.5 -35.5s8 -32.667 8 -54
c0 -20.667 -2.66699 -38.334 -8 -53.001s-12.833 -26.667 -22.5 -36s-20.834 -16 -33.501 -20s-26.334 -6 -41.001 -6c-30 0 -54.833 8.66699 -74.5 26s-29.5 47 -29.5 89zM645.996 1409c0 21.333 2.66699 39.334 8 54.001s12.666 26.5 21.999 35.5s20.333 15.5 33 19.5
s26.334 6 41.001 6s28.334 -2 41.001 -6s23.834 -10.5 33.501 -19.5s17.167 -20.833 22.5 -35.5s8 -32.667 8 -54c0 -20.667 -2.66699 -38.334 -8 -53.001s-12.833 -26.667 -22.5 -36s-20.834 -16 -33.501 -20s-26.334 -6 -41.001 -6c-30 0 -54.833 8.66699 -74.5 26
s-29.5 47 -29.5 89z" />
    <glyph glyph-name="aring" unicode="&#xe5;" horiz-adv-x="1153" 
d="M301 297c0 -64 13.498 -111.831 40.498 -143.498s68.833 -47.5 125.5 -47.5c41.333 0 78.833 6.66699 112.5 20s62.334 32.333 86.001 57s41.834 54.667 54.501 90s19 74.666 19 117.999v166l-131 -6c-58 -2.66699 -106.5 -9.83398 -145.5 -21.501s-70.5 -28 -94.5 -49
s-41.167 -46.833 -51.5 -77.5s-15.5 -66 -15.5 -106zM548.998 1016c-39.333 0 -71.168 -5.5 -95.501 -16.5s-43.333 -26.5 -57 -46.5s-22.834 -43.667 -27.501 -71s-7 -57 -7 -89c-56.667 0 -99.834 9.66699 -129.501 29s-44.5 52.666 -44.5 99.999
c0 35.333 9.66699 65.333 29 90s45.833 44.834 79.5 60.501s72.834 27.167 117.501 34.5s92.334 11 143.001 11c62.667 0 117.334 -6.16699 164.001 -18.5s85.667 -32.5 117 -60.5s54.833 -64.5 70.5 -109.5s23.5 -100.167 23.5 -165.5v-531
c0 -28.667 2.33301 -52.334 7 -71.001s12 -33.667 22 -45s23.167 -19.333 39.5 -24s35.833 -7 58.5 -7h6v-86h-277l-32 176h-17c-21.333 -28.667 -42 -55 -62 -79s-42 -44.667 -66 -62s-51.167 -30.833 -81.5 -40.5s-66.833 -14.5 -109.5 -14.5
c-45.333 0 -87.5 6.5 -126.5 19.5s-72.667 33 -101 60s-50.5 61 -66.5 102s-24 89.5 -24 145.5c0 108.667 38.667 189.334 116 242.001s194.333 81.334 351 86.001l170 6v123c0 36.667 -2 70.5 -6 101.5s-12.667 57.667 -26 80s-32.5 39.666 -57.5 51.999
s-58.5 18.5 -100.5 18.5zM818.996 1444c0 -36.667 -6.33301 -68.834 -19 -96.501s-30.167 -50.834 -52.5 -69.501s-48.5 -32.834 -78.5 -42.501s-62 -14.5 -96 -14.5s-66 4.83301 -96 14.5s-56.167 23.834 -78.5 42.501s-39.833 41.834 -52.5 69.501s-19 59.834 -19 96.501
c0 36 6.33301 68 19 96s30.167 51.333 52.5 70s48.5 32.834 78.5 42.501s62 14.5 96 14.5s66 -4.83301 96 -14.5s56.167 -23.834 78.5 -42.501s39.833 -42 52.5 -70s19 -60 19 -96zM707.996 1444c0 22 -3.5 40.833 -10.5 56.5s-16.667 28.334 -29 38.001
s-26.666 16.834 -42.999 21.501s-33.833 7 -52.5 7s-36.167 -2.33301 -52.5 -7s-30.666 -11.834 -42.999 -21.501s-22 -22.334 -29 -38.001s-10.5 -34.5 -10.5 -56.5s3.5 -40.833 10.5 -56.5s16.667 -28.334 29 -38.001s26.666 -16.834 42.999 -21.501s33.833 -7 52.5 -7
s36.167 2.33301 52.5 7s30.666 11.834 42.999 21.501s22 22.334 29 38.001s10.5 34.5 10.5 56.5z" />
    <glyph glyph-name="ae" unicode="&#xe6;" horiz-adv-x="1722" 
d="M301 297c0 -64 13.498 -111.831 40.498 -143.498s68.833 -47.5 125.5 -47.5c41.333 0 78.833 6.66699 112.5 20s62.334 32.333 86.001 57s41.834 54.667 54.501 90s19 74.666 19 117.999v123v27v16l-131 -6c-58 -2.66699 -106.5 -9.83398 -145.5 -21.501
s-70.5 -28 -94.5 -49s-41.167 -46.833 -51.5 -77.5s-15.5 -66 -15.5 -106zM1190 1008c-76.667 0 -135.335 -30.832 -176.002 -92.499s-64.667 -151.834 -72 -270.501h471c0 54 -4 103.333 -12 148s-20.667 83 -38 115s-40.166 56.667 -68.499 74s-63.166 26 -104.499 26z
M1221 -19.9971c-100 0 -184.835 19.6699 -254.502 59.0029s-123.5 97.333 -161.5 174c-12.667 -30.667 -30.334 -60 -53.001 -88s-50.167 -52.833 -82.5 -74.5s-69.333 -38.834 -111 -51.501s-87.834 -19 -138.501 -19c-45.333 0 -87.5 6.5 -126.5 19.5s-72.667 33 -101 60
s-50.5 61 -66.5 102s-24 89.5 -24 145.5c0 108.667 38.667 189.334 116 242.001s194.333 81.334 351 86.001l170 6v123c0 36.667 -2 70.5 -6 101.5s-12.667 57.667 -26 80s-32.5 39.666 -57.5 51.999s-58.5 18.5 -100.5 18.5c-39.333 0 -71.166 -5.5 -95.499 -16.5
s-43.333 -26.5 -57 -46.5s-22.834 -43.667 -27.501 -71s-7 -57 -7 -89c-56.667 0 -99.834 9.66699 -129.501 29s-44.5 52.666 -44.5 99.999c0 35.333 9.66699 65.333 29 90s45.833 44.834 79.5 60.501s72.834 27.167 117.501 34.5s92.334 11 143.001 11
c77.333 0 142.5 -9.83301 195.5 -29.5s94.5 -51.5 124.5 -95.5c76 83.333 181.667 125 317 125c66 0 125.333 -10.333 178 -31s97.334 -51.5 134.001 -92.5s64.834 -92 84.501 -153s29.5 -131.833 29.5 -212.5v-94h-682c1.33301 -74.667 8.5 -138.834 21.5 -192.501
s32.333 -97.834 58 -132.501s58.167 -60.167 97.5 -76.5s86 -24.5 140 -24.5c30 0 59 3.66699 87 11s54.167 17.5 78.5 30.5s46.333 28.167 66 45.5s36.167 36 49.5 56c9.33301 -4 18.166 -12.333 26.499 -25s12.5 -27.667 12.5 -45c0 -20.667 -7.33301 -42.834 -22 -66.501
s-36.667 -45.5 -66 -65.5s-66.166 -36.667 -110.499 -50s-96.166 -20 -155.499 -20z" />
    <glyph glyph-name="ccedilla" unicode="&#xe7;" horiz-adv-x="1008" 
d="M580 -20c-68 0 -130.665 10.4922 -187.998 31.4922s-106.666 54.167 -147.999 99.5s-73.5 103.5 -96.5 174.5s-34.5 156.833 -34.5 257.5c0 109.333 11.5 200.833 34.5 274.5s55 132.834 96 177.501s89.333 76.334 145 95.001s115.834 28 180.501 28
c42.667 0 85.167 -4.16699 127.5 -12.5s80.5 -21.166 114.5 -38.499s61.667 -39.166 83 -65.499s32 -57.166 32 -92.499c0 -47.333 -15.333 -80.666 -46 -99.999s-76.334 -29 -137.001 -29c0 32 -2.66699 62.333 -8 91s-14.5 53.834 -27.5 75.501s-30.667 38.667 -53 51
s-50.833 18.5 -85.5 18.5c-39.333 0 -74.833 -7.33301 -106.5 -22s-58.834 -40 -81.501 -76s-40 -84.333 -52 -145s-18 -136.667 -18 -228c0 -145.333 24.167 -253.666 72.5 -324.999s127.5 -107 237.5 -107c63.333 0 118.666 13.333 165.999 40s82.666 61 105.999 103
c10 -8 18.333 -18.667 25 -32s10 -29.333 10 -48c0 -23.333 -7.33301 -46.666 -22 -69.999s-36.5 -44.333 -65.5 -63s-65.167 -33.834 -108.5 -45.501s-94 -17.5 -152 -17.5zM784.002 -258.008c0 -72.667 -23.1699 -129.833 -69.5029 -171.5s-113.166 -62.5 -200.499 -62.5
c-10.667 0 -22.667 0.5 -36 1.5s-27 2.5 -41 4.5s-28 4.5 -42 7.5s-27 6.16699 -39 9.5v104c24.667 -5.33301 49.334 -9.33301 74.001 -12s46.334 -4 65.001 -4c39.333 0 70 10.333 92 31s33 48.667 33 84c0 40 -14.5 70 -43.5 90s-65.833 31.667 -110.5 35l43 159h97
l-21 -88c66.667 -5.33301 116.5 -24.5 149.5 -57.5s49.5 -76.5 49.5 -130.5z" />
    <glyph glyph-name="egrave" unicode="&#xe8;" horiz-adv-x="1096" 
d="M563 1008c-76 0 -134.502 -30.832 -175.502 -92.499s-65.167 -151.834 -72.5 -270.501h471c0 54 -4 103.333 -12 148s-20.667 83 -38 115s-40.166 56.667 -68.499 74s-63.166 26 -104.499 26zM587.998 -19.999c-74 0 -140.5 12.502 -199.5 37.502
s-108.833 61.5 -149.5 109.5s-71.834 106.833 -93.501 176.5s-32.5 148.834 -32.5 237.501c0 191.333 39.333 335.333 118 432s190.667 145 336 145c66 0 125.333 -10.333 178 -31s97.334 -51.5 134.001 -92.5s64.834 -92 84.501 -153s29.5 -131.833 29.5 -212.5v-94h-682
c1.33301 -74.667 8.83301 -138.834 22.5 -192.501s33.334 -97.834 59.001 -132.501s57.167 -60.167 94.5 -76.5s80.333 -24.5 129 -24.5c35.333 0 68.166 4 98.499 12s57.833 18.667 82.5 32s46.5 28.5 65.5 45.5s34.5 34.833 46.5 53.5
c9.33301 -4 18.166 -12.333 26.499 -25s12.5 -27.667 12.5 -45c0 -20.667 -7.33301 -42.834 -22 -66.501s-37 -45.5 -67 -65.5s-67.5 -36.667 -112.5 -50s-97.833 -20 -158.5 -20zM682.998 1241l-78 -0.00195312c-27.333 18.667 -57 41.834 -89 69.501s-63 56.167 -93 85.5
s-57.333 57.5 -82 84.5s-43.334 49.5 -56.001 67.5v21h219c10.667 -22.667 23.167 -47.5 37.5 -74.5s29.5 -54 45.5 -81s32.333 -53.167 49 -78.5s32.334 -47.666 47.001 -66.999v-27z" />
    <glyph glyph-name="eacute" unicode="&#xe9;" horiz-adv-x="1096" 
d="M563 1008c-76 0 -134.502 -30.832 -175.502 -92.499s-65.167 -151.834 -72.5 -270.501h471c0 54 -4 103.333 -12 148s-20.667 83 -38 115s-40.166 56.667 -68.499 74s-63.166 26 -104.499 26zM587.998 -19.999c-74 0 -140.5 12.502 -199.5 37.502
s-108.833 61.5 -149.5 109.5s-71.834 106.833 -93.501 176.5s-32.5 148.834 -32.5 237.501c0 191.333 39.333 335.333 118 432s190.667 145 336 145c66 0 125.333 -10.333 178 -31s97.334 -51.5 134.001 -92.5s64.834 -92 84.501 -153s29.5 -131.833 29.5 -212.5v-94h-682
c1.33301 -74.667 8.83301 -138.834 22.5 -192.501s33.334 -97.834 59.001 -132.501s57.167 -60.167 94.5 -76.5s80.333 -24.5 129 -24.5c35.333 0 68.166 4 98.499 12s57.833 18.667 82.5 32s46.5 28.5 65.5 45.5s34.5 34.833 46.5 53.5
c9.33301 -4 18.166 -12.333 26.499 -25s12.5 -27.667 12.5 -45c0 -20.667 -7.33301 -42.834 -22 -66.501s-37 -45.5 -67 -65.5s-67.5 -36.667 -112.5 -50s-97.833 -20 -158.5 -20zM472.998 1268c15.333 19.333 31.168 41.668 47.501 67.001s32.333 51.5 48 78.5l45 81
c14.333 27 26.833 51.833 37.5 74.5h219v-21c-12.667 -18 -31.334 -40.5 -56.001 -67.5s-52 -55.167 -82 -84.5s-60.833 -57.833 -92.5 -85.5s-61.167 -50.834 -88.5 -69.501h-78v27z" />
    <glyph glyph-name="ecircumflex" unicode="&#xea;" horiz-adv-x="1096" 
d="M563 1008c-76 0 -134.502 -30.832 -175.502 -92.499s-65.167 -151.834 -72.5 -270.501h471c0 54 -4 103.333 -12 148s-20.667 83 -38 115s-40.166 56.667 -68.499 74s-63.166 26 -104.499 26zM587.998 -19.999c-74 0 -140.5 12.502 -199.5 37.502
s-108.833 61.5 -149.5 109.5s-71.834 106.833 -93.501 176.5s-32.5 148.834 -32.5 237.501c0 191.333 39.333 335.333 118 432s190.667 145 336 145c66 0 125.333 -10.333 178 -31s97.334 -51.5 134.001 -92.5s64.834 -92 84.501 -153s29.5 -131.833 29.5 -212.5v-94h-682
c1.33301 -74.667 8.83301 -138.834 22.5 -192.501s33.334 -97.834 59.001 -132.501s57.167 -60.167 94.5 -76.5s80.333 -24.5 129 -24.5c35.333 0 68.166 4 98.499 12s57.833 18.667 82.5 32s46.5 28.5 65.5 45.5s34.5 34.833 46.5 53.5
c9.33301 -4 18.166 -12.333 26.499 -25s12.5 -27.667 12.5 -45c0 -20.667 -7.33301 -42.834 -22 -66.501s-37 -45.5 -67 -65.5s-67.5 -36.667 -112.5 -50s-97.833 -20 -158.5 -20zM254.998 1268l52.998 67l57.5 78.5c19 27 36.833 54 53.5 81s30.334 51.833 41.001 74.5h194
c10.667 -22.667 24.334 -47.5 41.001 -74.5s34.5 -54 53.5 -81l57.5 -78.5l53 -67v-27h-80c-39.333 22.667 -78.666 50.834 -117.999 84.501s-74.333 66.834 -105 99.501c-31.333 -32.667 -66.333 -65.834 -105 -99.501s-77.334 -61.834 -116.001 -84.501h-80v27z" />
    <glyph glyph-name="edieresis" unicode="&#xeb;" horiz-adv-x="1096" 
d="M563 1008c-76 0 -134.502 -30.832 -175.502 -92.499s-65.167 -151.834 -72.5 -270.501h471c0 54 -4 103.333 -12 148s-20.667 83 -38 115s-40.166 56.667 -68.499 74s-63.166 26 -104.499 26zM587.998 -19.999c-74 0 -140.5 12.502 -199.5 37.502
s-108.833 61.5 -149.5 109.5s-71.834 106.833 -93.501 176.5s-32.5 148.834 -32.5 237.501c0 191.333 39.333 335.333 118 432s190.667 145 336 145c66 0 125.333 -10.333 178 -31s97.334 -51.5 134.001 -92.5s64.834 -92 84.501 -153s29.5 -131.833 29.5 -212.5v-94h-682
c1.33301 -74.667 8.83301 -138.834 22.5 -192.501s33.334 -97.834 59.001 -132.501s57.167 -60.167 94.5 -76.5s80.333 -24.5 129 -24.5c35.333 0 68.166 4 98.499 12s57.833 18.667 82.5 32s46.5 28.5 65.5 45.5s34.5 34.833 46.5 53.5
c9.33301 -4 18.166 -12.333 26.499 -25s12.5 -27.667 12.5 -45c0 -20.667 -7.33301 -42.834 -22 -66.501s-37 -45.5 -67 -65.5s-67.5 -36.667 -112.5 -50s-97.833 -20 -158.5 -20zM252.998 1409c0 21.333 2.66699 39.334 8 54.001s12.666 26.5 21.999 35.5
s20.333 15.5 33 19.5s26.334 6 41.001 6s28.334 -2 41.001 -6s23.834 -10.5 33.501 -19.5s17.167 -20.833 22.5 -35.5s8 -32.667 8 -54c0 -20.667 -2.66699 -38.334 -8 -53.001s-12.833 -26.667 -22.5 -36s-20.834 -16 -33.501 -20s-26.334 -6 -41.001 -6
c-30 0 -54.833 8.66699 -74.5 26s-29.5 47 -29.5 89zM641.998 1409c0 21.333 2.66699 39.334 8 54.001s12.666 26.5 21.999 35.5s20.333 15.5 33 19.5s26.334 6 41.001 6s28.334 -2 41.001 -6s23.834 -10.5 33.501 -19.5s17.167 -20.833 22.5 -35.5s8 -32.667 8 -54
c0 -20.667 -2.66699 -38.334 -8 -53.001s-12.833 -26.667 -22.5 -36s-20.834 -16 -33.501 -20s-26.334 -6 -41.001 -6c-30 0 -54.833 8.66699 -74.5 26s-29.5 47 -29.5 89z" />
    <glyph glyph-name="igrave" unicode="&#xec;" horiz-adv-x="655" 
d="M74 86c22.667 0 44.166 1.49902 64.499 4.49902s38.166 9.16699 53.499 18.5s27.5 23.166 36.5 41.499s13.5 42.5 13.5 72.5v649c0 30 -4.5 54.167 -13.5 72.5s-21.167 32.5 -36.5 42.5s-33.166 16.667 -53.499 20s-41.833 5 -64.5 5h-6v86h366v-865
c0 -32 4.5 -57.667 13.5 -77s21 -34.166 36 -44.499s32.833 -17.166 53.5 -20.499s42.334 -5 65.001 -5h27v-86h-582v86h27zM435.999 1241l-78 -0.00195312c-27.333 18.667 -57 41.834 -89 69.501s-63 56.167 -93 85.5s-57.333 57.5 -82 84.5s-43.334 49.5 -56.001 67.5v21
h219c10.667 -22.667 23.167 -47.5 37.5 -74.5s29.5 -54 45.5 -81s32.333 -53.167 49 -78.5s32.334 -47.666 47.001 -66.999v-27z" />
    <glyph glyph-name="iacute" unicode="&#xed;" horiz-adv-x="655" 
d="M74 86c22.667 0 44.166 1.49902 64.499 4.49902s38.166 9.16699 53.499 18.5s27.5 23.166 36.5 41.499s13.5 42.5 13.5 72.5v649c0 30 -4.5 54.167 -13.5 72.5s-21.167 32.5 -36.5 42.5s-33.166 16.667 -53.499 20s-41.833 5 -64.5 5h-6v86h366v-865
c0 -32 4.5 -57.667 13.5 -77s21 -34.166 36 -44.499s32.833 -17.166 53.5 -20.499s42.334 -5 65.001 -5h27v-86h-582v86h27zM239.999 1268c15.333 19.333 31.168 41.668 47.501 67.001s32.333 51.5 48 78.5l45 81c14.333 27 26.833 51.833 37.5 74.5h219v-21
c-12.667 -18 -31.334 -40.5 -56.001 -67.5s-52 -55.167 -82 -84.5s-60.833 -57.833 -92.5 -85.5s-61.167 -50.834 -88.5 -69.501h-78v27z" />
    <glyph glyph-name="icircumflex" unicode="&#xee;" horiz-adv-x="655" 
d="M74 86c22.667 0 44.166 1.49902 64.499 4.49902s38.166 9.16699 53.499 18.5s27.5 23.166 36.5 41.499s13.5 42.5 13.5 72.5v649c0 30 -4.5 54.167 -13.5 72.5s-21.167 32.5 -36.5 42.5s-33.166 16.667 -53.499 20s-41.833 5 -64.5 5h-6v86h366v-865
c0 -32 4.5 -57.667 13.5 -77s21 -34.166 36 -44.499s32.833 -17.166 53.5 -20.499s42.334 -5 65.001 -5h27v-86h-582v86h27zM21.999 1268l52.998 67l57.5 78.5c19 27 36.833 54 53.5 81s30.334 51.833 41.001 74.5h194c10.667 -22.667 24.334 -47.5 41.001 -74.5
s34.5 -54 53.5 -81l57.5 -78.5l53 -67v-27h-80c-39.333 22.667 -78.666 50.834 -117.999 84.501s-74.333 66.834 -105 99.501c-31.333 -32.667 -66.333 -65.834 -105 -99.501s-77.334 -61.834 -116.001 -84.501h-80v27z" />
    <glyph glyph-name="idieresis" unicode="&#xef;" horiz-adv-x="655" 
d="M74 86c22.667 0 44.166 1.49902 64.499 4.49902s38.166 9.16699 53.499 18.5s27.5 23.166 36.5 41.499s13.5 42.5 13.5 72.5v649c0 30 -4.5 54.167 -13.5 72.5s-21.167 32.5 -36.5 42.5s-33.166 16.667 -53.499 20s-41.833 5 -64.5 5h-6v86h366v-865
c0 -32 4.5 -57.667 13.5 -77s21 -34.166 36 -44.499s32.833 -17.166 53.5 -20.499s42.334 -5 65.001 -5h27v-86h-582v86h27zM17.999 1409c0 21.333 2.66699 39.334 8 54.001s12.666 26.5 21.999 35.5s20.333 15.5 33 19.5s26.334 6 41.001 6s28.334 -2 41.001 -6
s23.834 -10.5 33.501 -19.5s17.167 -20.833 22.5 -35.5s8 -32.667 8 -54c0 -20.667 -2.66699 -38.334 -8 -53.001s-12.833 -26.667 -22.5 -36s-20.834 -16 -33.501 -20s-26.334 -6 -41.001 -6c-30 0 -54.833 8.66699 -74.5 26s-29.5 47 -29.5 89zM406.999 1409
c0 21.333 2.66699 39.334 8 54.001s12.666 26.5 21.999 35.5s20.333 15.5 33 19.5s26.334 6 41.001 6s28.334 -2 41.001 -6s23.834 -10.5 33.501 -19.5s17.167 -20.833 22.5 -35.5s8 -32.667 8 -54c0 -20.667 -2.66699 -38.334 -8 -53.001s-12.833 -26.667 -22.5 -36
s-20.834 -16 -33.501 -20s-26.334 -6 -41.001 -6c-30 0 -54.833 8.66699 -74.5 26s-29.5 47 -29.5 89z" />
    <glyph glyph-name="eth" unicode="&#xf0;" horiz-adv-x="1182" 
d="M307 1559c62.667 -15.333 124 -35.4961 184 -60.4961s117 -55.5 171 -91.5l264 154v-117l-181 -103c48 -40 92 -85.833 132 -137.5s74.167 -108.834 102.5 -171.501s50.333 -130.5 66 -203.5s23.5 -150.5 23.5 -232.5c0 -208 -40.833 -362.667 -122.5 -464
s-201.167 -152 -358.5 -152c-74 0 -140.333 10.833 -199 32.5s-108.5 54.5 -149.5 98.5s-72.333 99.167 -94 165.5s-32.5 144.166 -32.5 233.499c0 177.333 40.5 309.333 121.5 396s200.833 130 359.5 130c45.333 0 87.333 -4.66699 126 -14s75 -22.333 109 -39
c-14 45.333 -38.833 93.166 -74.5 143.499s-79.5 98.166 -131.5 143.499l-256 -146v115l172 98c-34 22.667 -70.333 43.5 -109 62.5s-79.667 35.167 -123 48.5v111zM311 510.004c0 -70 5 -131.333 15 -184s26.167 -96.834 48.5 -132.501s51.333 -62.5 87 -80.5
s79.167 -27 130.5 -27s94.666 9 129.999 27s64 44.833 86 80.5s37.833 79.834 47.5 132.501s14.5 114 14.5 184c0 69.333 -5 130.166 -15 182.499s-26 96 -48 131s-50.833 61.167 -86.5 78.5s-79.167 26 -130.5 26s-94.666 -8.66699 -129.999 -26s-64 -43.5 -86 -78.5
s-38 -78.667 -48 -131s-15 -113.166 -15 -182.499z" />
    <glyph glyph-name="ntilde" unicode="&#xf1;" horiz-adv-x="1321" 
d="M608 86v-86.002h-551v86h17c23.333 0 45.166 1.66699 65.499 5s38 10.166 53 20.499s27 25.166 36 44.499s13.5 45 13.5 77v639c0 30 -4.5 54.167 -13.5 72.5s-21.167 32.5 -36.5 42.5s-33.166 16.667 -53.499 20s-41.833 5 -64.5 5h-6v86h331l27 -166h10
c21.333 38 43.833 69.167 67.5 93.5s48.667 43.333 75 57s54.333 23 84 28s60.834 7.5 93.501 7.5c54 0 102.167 -7.83301 144.5 -23.5s78.333 -39.667 108 -72s52.334 -73.833 68.001 -124.5s23.5 -111 23.5 -181v-484c0 -32 3.83301 -57.667 11.5 -77
s18.5 -34.166 32.5 -44.499s30.667 -17.166 50 -20.499s40.333 -5 63 -5h7v-86h-357v707c0 44.667 -4 84.334 -12 119.001s-20.833 64 -38.5 88s-40.834 42.167 -69.501 54.5s-63.667 18.5 -105 18.5c-46.667 0 -85.834 -9 -117.501 -27s-57.167 -42.333 -76.5 -73
s-33.166 -66 -41.499 -106s-12.5 -82 -12.5 -126v-432c0 -30 4.5 -54.167 13.5 -72.5s21.167 -32.166 36.5 -41.499s33.166 -15.5 53.499 -18.5s41.833 -4.5 64.5 -4.5h6zM842 1374c20 0 36.168 2.99902 48.501 8.99902s22 14.167 29 24.5s12 22 15 35s5.5 26.5 7.5 40.5h92
c-2 -31.333 -7.5 -61.5 -16.5 -90.5s-22.167 -54.833 -39.5 -77.5s-39 -40.667 -65 -54s-57.333 -20 -94 -20s-69.834 6.66699 -99.501 20s-57.334 28.166 -83.001 44.499l-72 44.5c-22.333 13.333 -44.5 20 -66.5 20c-20.667 0 -37 -3 -49 -9s-21.5 -14 -28.5 -24
s-12.167 -21.5 -15.5 -34.5s-6 -26.5 -8 -40.5h-92c2 31.333 7.5 61.333 16.5 90s22.333 54.334 40 77.001s39.667 40.667 66 54s57.833 20 94.5 20s69.834 -6.66699 99.501 -20s57.334 -28.166 83.001 -44.499l72 -44.5c22.333 -13.333 44.166 -20 65.499 -20z" />
    <glyph glyph-name="ograve" unicode="&#xf2;" horiz-adv-x="1182" 
d="M1069 551c0 -192.667 -40.833 -335.998 -122.5 -429.998s-201.167 -141 -358.5 -141c-74 0 -140.333 11.667 -199 35s-108.5 58.666 -149.5 105.999s-72.333 106.833 -94 178.5s-32.5 155.5 -32.5 251.5c0 191.333 40.5 333.666 121.5 426.999s200.833 140 359.5 140
c74 0 140.333 -11.5 199 -34.5s108.5 -58 149.5 -105s72.333 -106 94 -177s32.5 -154.5 32.5 -250.5zM311 551.002c0 -76 5 -143 15 -201s26.167 -106.5 48.5 -145.5s51.333 -68.5 87 -88.5s79.167 -30 130.5 -30s94.666 10 129.999 30s64 49.5 86 88.5
s37.833 87.5 47.5 145.5s14.5 125 14.5 201s-5 142.667 -15 200s-26 105.166 -48 143.499s-50.833 67.166 -86.5 86.499s-79.167 29 -130.5 29s-94.666 -9.66699 -129.999 -29s-64 -48.166 -86 -86.499s-38 -86.166 -48 -143.499s-15 -124 -15 -200zM696 1241
l-78 -0.00195312c-27.333 18.667 -57 41.834 -89 69.501s-63 56.167 -93 85.5s-57.333 57.5 -82 84.5s-43.334 49.5 -56.001 67.5v21h219c10.667 -22.667 23.167 -47.5 37.5 -74.5s29.5 -54 45.5 -81s32.333 -53.167 49 -78.5s32.334 -47.666 47.001 -66.999v-27z" />
    <glyph glyph-name="oacute" unicode="&#xf3;" horiz-adv-x="1182" 
d="M1069 551c0 -192.667 -40.833 -335.998 -122.5 -429.998s-201.167 -141 -358.5 -141c-74 0 -140.333 11.667 -199 35s-108.5 58.666 -149.5 105.999s-72.333 106.833 -94 178.5s-32.5 155.5 -32.5 251.5c0 191.333 40.5 333.666 121.5 426.999s200.833 140 359.5 140
c74 0 140.333 -11.5 199 -34.5s108.5 -58 149.5 -105s72.333 -106 94 -177s32.5 -154.5 32.5 -250.5zM311 551.002c0 -76 5 -143 15 -201s26.167 -106.5 48.5 -145.5s51.333 -68.5 87 -88.5s79.167 -30 130.5 -30s94.666 10 129.999 30s64 49.5 86 88.5
s37.833 87.5 47.5 145.5s14.5 125 14.5 201s-5 142.667 -15 200s-26 105.166 -48 143.499s-50.833 67.166 -86.5 86.499s-79.167 29 -130.5 29s-94.666 -9.66699 -129.999 -29s-64 -48.166 -86 -86.499s-38 -86.166 -48 -143.499s-15 -124 -15 -200zM512 1268
c15.333 19.333 31.168 41.668 47.501 67.001s32.333 51.5 48 78.5l45 81c14.333 27 26.833 51.833 37.5 74.5h219v-21c-12.667 -18 -31.334 -40.5 -56.001 -67.5s-52 -55.167 -82 -84.5s-60.833 -57.833 -92.5 -85.5s-61.167 -50.834 -88.5 -69.501h-78v27z" />
    <glyph glyph-name="ocircumflex" unicode="&#xf4;" horiz-adv-x="1182" 
d="M1069 551c0 -192.667 -40.833 -335.998 -122.5 -429.998s-201.167 -141 -358.5 -141c-74 0 -140.333 11.667 -199 35s-108.5 58.666 -149.5 105.999s-72.333 106.833 -94 178.5s-32.5 155.5 -32.5 251.5c0 191.333 40.5 333.666 121.5 426.999s200.833 140 359.5 140
c74 0 140.333 -11.5 199 -34.5s108.5 -58 149.5 -105s72.333 -106 94 -177s32.5 -154.5 32.5 -250.5zM311 551.002c0 -76 5 -143 15 -201s26.167 -106.5 48.5 -145.5s51.333 -68.5 87 -88.5s79.167 -30 130.5 -30s94.666 10 129.999 30s64 49.5 86 88.5
s37.833 87.5 47.5 145.5s14.5 125 14.5 201s-5 142.667 -15 200s-26 105.166 -48 143.499s-50.833 67.166 -86.5 86.499s-79.167 29 -130.5 29s-94.666 -9.66699 -129.999 -29s-64 -48.166 -86 -86.499s-38 -86.166 -48 -143.499s-15 -124 -15 -200zM284 1268l52.998 67
l57.5 78.5c19 27 36.833 54 53.5 81s30.334 51.833 41.001 74.5h194c10.667 -22.667 24.334 -47.5 41.001 -74.5s34.5 -54 53.5 -81l57.5 -78.5l53 -67v-27h-80c-39.333 22.667 -78.666 50.834 -117.999 84.501s-74.333 66.834 -105 99.501
c-31.333 -32.667 -66.333 -65.834 -105 -99.501s-77.334 -61.834 -116.001 -84.501h-80v27z" />
    <glyph glyph-name="otilde" unicode="&#xf5;" horiz-adv-x="1182" 
d="M1069 551c0 -192.667 -40.833 -335.998 -122.5 -429.998s-201.167 -141 -358.5 -141c-74 0 -140.333 11.667 -199 35s-108.5 58.666 -149.5 105.999s-72.333 106.833 -94 178.5s-32.5 155.5 -32.5 251.5c0 191.333 40.5 333.666 121.5 426.999s200.833 140 359.5 140
c74 0 140.333 -11.5 199 -34.5s108.5 -58 149.5 -105s72.333 -106 94 -177s32.5 -154.5 32.5 -250.5zM311 551.002c0 -76 5 -143 15 -201s26.167 -106.5 48.5 -145.5s51.333 -68.5 87 -88.5s79.167 -30 130.5 -30s94.666 10 129.999 30s64 49.5 86 88.5
s37.833 87.5 47.5 145.5s14.5 125 14.5 201s-5 142.667 -15 200s-26 105.166 -48 143.499s-50.833 67.166 -86.5 86.499s-79.167 29 -130.5 29s-94.666 -9.66699 -129.999 -29s-64 -48.166 -86 -86.499s-38 -86.166 -48 -143.499s-15 -124 -15 -200zM757 1374
c20 0 36.168 2.99902 48.501 8.99902s22 14.167 29 24.5s12 22 15 35s5.5 26.5 7.5 40.5h92c-2 -31.333 -7.5 -61.5 -16.5 -90.5s-22.167 -54.833 -39.5 -77.5s-39 -40.667 -65 -54s-57.333 -20 -94 -20s-69.834 6.66699 -99.501 20s-57.334 28.166 -83.001 44.499l-72 44.5
c-22.333 13.333 -44.5 20 -66.5 20c-20.667 0 -37 -3 -49 -9s-21.5 -14 -28.5 -24s-12.167 -21.5 -15.5 -34.5s-6 -26.5 -8 -40.5h-92c2 31.333 7.5 61.333 16.5 90s22.333 54.334 40 77.001s39.667 40.667 66 54s57.833 20 94.5 20s69.834 -6.66699 99.501 -20
s57.334 -28.166 83.001 -44.499l72 -44.5c22.333 -13.333 44.166 -20 65.499 -20z" />
    <glyph glyph-name="odieresis" unicode="&#xf6;" horiz-adv-x="1182" 
d="M1069 551c0 -192.667 -40.833 -335.998 -122.5 -429.998s-201.167 -141 -358.5 -141c-74 0 -140.333 11.667 -199 35s-108.5 58.666 -149.5 105.999s-72.333 106.833 -94 178.5s-32.5 155.5 -32.5 251.5c0 191.333 40.5 333.666 121.5 426.999s200.833 140 359.5 140
c74 0 140.333 -11.5 199 -34.5s108.5 -58 149.5 -105s72.333 -106 94 -177s32.5 -154.5 32.5 -250.5zM311 551.002c0 -76 5 -143 15 -201s26.167 -106.5 48.5 -145.5s51.333 -68.5 87 -88.5s79.167 -30 130.5 -30s94.666 10 129.999 30s64 49.5 86 88.5
s37.833 87.5 47.5 145.5s14.5 125 14.5 201s-5 142.667 -15 200s-26 105.166 -48 143.499s-50.833 67.166 -86.5 86.499s-79.167 29 -130.5 29s-94.666 -9.66699 -129.999 -29s-64 -48.166 -86 -86.499s-38 -86.166 -48 -143.499s-15 -124 -15 -200zM284 1409
c0 21.333 2.66699 39.334 8 54.001s12.666 26.5 21.999 35.5s20.333 15.5 33 19.5s26.334 6 41.001 6s28.334 -2 41.001 -6s23.834 -10.5 33.501 -19.5s17.167 -20.833 22.5 -35.5s8 -32.667 8 -54c0 -20.667 -2.66699 -38.334 -8 -53.001s-12.833 -26.667 -22.5 -36
s-20.834 -16 -33.501 -20s-26.334 -6 -41.001 -6c-30 0 -54.833 8.66699 -74.5 26s-29.5 47 -29.5 89zM673 1409c0 21.333 2.66699 39.334 8 54.001s12.666 26.5 21.999 35.5s20.333 15.5 33 19.5s26.334 6 41.001 6s28.334 -2 41.001 -6s23.834 -10.5 33.501 -19.5
s17.167 -20.833 22.5 -35.5s8 -32.667 8 -54c0 -20.667 -2.66699 -38.334 -8 -53.001s-12.833 -26.667 -22.5 -36s-20.834 -16 -33.501 -20s-26.334 -6 -41.001 -6c-30 0 -54.833 8.66699 -74.5 26s-29.5 47 -29.5 89z" />
    <glyph glyph-name="divide" unicode="&#xf7;" 
d="M1012 672h-879v121h879v-121zM469 1120c0 21.333 2.66699 39.333 8 54s12.666 26.334 21.999 35.001s20.333 14.834 33 18.501s26.334 5.5 41.001 5.5s28.334 -1.83301 41.001 -5.5s23.834 -9.83398 33.501 -18.501s17.167 -20.334 22.5 -35.001s8 -32.667 8 -54
c0 -20.667 -2.66699 -38.167 -8 -52.5s-12.833 -26 -22.5 -35s-20.834 -15.333 -33.501 -19s-26.334 -5.5 -41.001 -5.5s-28.334 1.83301 -41.001 5.5s-23.667 10 -33 19s-16.666 20.667 -21.999 35s-8 31.833 -8 52.5zM469 344c0 21.333 2.66699 39.335 8 54.002
s12.666 26.334 21.999 35.001s20.333 14.834 33 18.501s26.334 5.5 41.001 5.5s28.334 -1.83301 41.001 -5.5s23.834 -9.83398 33.501 -18.501s17.167 -20.334 22.5 -35.001s8 -32.667 8 -54c0 -20.667 -2.66699 -38.334 -8 -53.001s-12.833 -26.334 -22.5 -35.001
s-20.834 -15 -33.501 -19s-26.334 -6 -41.001 -6c-30 0 -54.833 8.33301 -74.5 25s-29.5 46 -29.5 88z" />
    <glyph glyph-name="oslash" unicode="&#xf8;" horiz-adv-x="1182" 
d="M930 991c45.333 -46 79.834 -105.496 103.501 -178.496s35.5 -160.167 35.5 -261.5c0 -192.667 -40.833 -336 -122.5 -430s-201.167 -141 -358.5 -141c-47.333 0 -91.666 4.66699 -132.999 14s-79 23.666 -113 42.999l-74 -119h-121l111 180
c-47.333 48 -83.333 109.167 -108 183.5s-37 164.166 -37 269.499c0 191.333 40.5 333.666 121.5 426.999s200.833 140 359.5 140c49.333 0 95.166 -5.33301 137.499 -16s81.166 -26.334 116.499 -47.001l78 125h118zM311.001 551.004
c0 -62.667 3.33203 -119.002 9.99902 -169.002s17 -94 31 -132l424 686c-45.333 49.333 -107.333 74 -186 74c-51.333 0 -94.666 -9.66699 -129.999 -29s-64 -48.166 -86 -86.499s-38 -86.166 -48 -143.499s-15 -124 -15 -200zM870 551.002
c0 118 -11.999 212.999 -35.999 284.999l-422 -684c21.333 -21.333 46.833 -37.666 76.5 -48.999s64.167 -17 103.5 -17c51.333 0 94.666 10 129.999 30s64 49.5 86 88.5s37.833 87.5 47.5 145.5s14.5 125 14.5 201z" />
    <glyph glyph-name="ugrave" unicode="&#xf9;" horiz-adv-x="1300" 
d="M1079 223c0 -30 4.5 -54.167 13.5 -72.5s21.167 -32.166 36.5 -41.499s33.166 -15.5 53.499 -18.5s41.833 -4.5 64.5 -4.5h6v-86h-325l-27 166h-10c-20.667 -38.667 -43.5 -70 -68.5 -94s-51.5 -42.833 -79.5 -56.5s-57.333 -23 -88 -28s-62.667 -7.5 -96 -7.5
c-54 0 -102 7.66699 -144 23s-77.333 39.333 -106 72s-50.5 74.334 -65.5 125.001s-22.5 111 -22.5 181v491c0 30 -4.5 54.167 -13.5 72.5s-21.167 32.5 -36.5 42.5s-33.166 16.667 -53.499 20s-41.833 5 -64.5 5h-6v86h367v-707c0 -44.667 3.5 -84.334 10.5 -119.001
s18.667 -64 35 -88s38.333 -42.167 66 -54.5s62.167 -18.5 103.5 -18.5c45.333 0 84.166 8 116.499 24s59 38.5 80 67.5s36.5 63.833 46.5 104.5s15 85.667 15 135v422c0 32 -4.5 57.833 -13.5 77.5s-21 34.667 -36 45s-32.667 17.166 -53 20.499s-42.166 5 -65.499 5h-6v86
h366v-875zM712 1241l-78 -0.00195312c-27.333 18.667 -57 41.834 -89 69.501s-63 56.167 -93 85.5s-57.333 57.5 -82 84.5s-43.334 49.5 -56.001 67.5v21h219c10.667 -22.667 23.167 -47.5 37.5 -74.5s29.5 -54 45.5 -81s32.333 -53.167 49 -78.5
s32.334 -47.666 47.001 -66.999v-27z" />
    <glyph glyph-name="uacute" unicode="&#xfa;" horiz-adv-x="1300" 
d="M1079 223c0 -30 4.5 -54.167 13.5 -72.5s21.167 -32.166 36.5 -41.499s33.166 -15.5 53.499 -18.5s41.833 -4.5 64.5 -4.5h6v-86h-325l-27 166h-10c-20.667 -38.667 -43.5 -70 -68.5 -94s-51.5 -42.833 -79.5 -56.5s-57.333 -23 -88 -28s-62.667 -7.5 -96 -7.5
c-54 0 -102 7.66699 -144 23s-77.333 39.333 -106 72s-50.5 74.334 -65.5 125.001s-22.5 111 -22.5 181v491c0 30 -4.5 54.167 -13.5 72.5s-21.167 32.5 -36.5 42.5s-33.166 16.667 -53.499 20s-41.833 5 -64.5 5h-6v86h367v-707c0 -44.667 3.5 -84.334 10.5 -119.001
s18.667 -64 35 -88s38.333 -42.167 66 -54.5s62.167 -18.5 103.5 -18.5c45.333 0 84.166 8 116.499 24s59 38.5 80 67.5s36.5 63.833 46.5 104.5s15 85.667 15 135v422c0 32 -4.5 57.833 -13.5 77.5s-21 34.667 -36 45s-32.667 17.166 -53 20.499s-42.166 5 -65.499 5h-6v86
h366v-875zM541 1268c15.333 19.333 31.168 41.668 47.501 67.001s32.333 51.5 48 78.5l45 81c14.333 27 26.833 51.833 37.5 74.5h219v-21c-12.667 -18 -31.334 -40.5 -56.001 -67.5s-52 -55.167 -82 -84.5s-60.833 -57.833 -92.5 -85.5s-61.167 -50.834 -88.5 -69.501h-78
v27z" />
    <glyph glyph-name="ucircumflex" unicode="&#xfb;" horiz-adv-x="1300" 
d="M1079 223c0 -30 4.5 -54.167 13.5 -72.5s21.167 -32.166 36.5 -41.499s33.166 -15.5 53.499 -18.5s41.833 -4.5 64.5 -4.5h6v-86h-325l-27 166h-10c-20.667 -38.667 -43.5 -70 -68.5 -94s-51.5 -42.833 -79.5 -56.5s-57.333 -23 -88 -28s-62.667 -7.5 -96 -7.5
c-54 0 -102 7.66699 -144 23s-77.333 39.333 -106 72s-50.5 74.334 -65.5 125.001s-22.5 111 -22.5 181v491c0 30 -4.5 54.167 -13.5 72.5s-21.167 32.5 -36.5 42.5s-33.166 16.667 -53.499 20s-41.833 5 -64.5 5h-6v86h367v-707c0 -44.667 3.5 -84.334 10.5 -119.001
s18.667 -64 35 -88s38.333 -42.167 66 -54.5s62.167 -18.5 103.5 -18.5c45.333 0 84.166 8 116.499 24s59 38.5 80 67.5s36.5 63.833 46.5 104.5s15 85.667 15 135v422c0 32 -4.5 57.833 -13.5 77.5s-21 34.667 -36 45s-32.667 17.166 -53 20.499s-42.166 5 -65.499 5h-6v86
h366v-875zM342 1268l52.998 67l57.5 78.5c19 27 36.833 54 53.5 81s30.334 51.833 41.001 74.5h194c10.667 -22.667 24.334 -47.5 41.001 -74.5s34.5 -54 53.5 -81l57.5 -78.5l53 -67v-27h-80c-39.333 22.667 -78.666 50.834 -117.999 84.501s-74.333 66.834 -105 99.501
c-31.333 -32.667 -66.333 -65.834 -105 -99.501s-77.334 -61.834 -116.001 -84.501h-80v27z" />
    <glyph glyph-name="udieresis" unicode="&#xfc;" horiz-adv-x="1300" 
d="M1079 223c0 -30 4.5 -54.167 13.5 -72.5s21.167 -32.166 36.5 -41.499s33.166 -15.5 53.499 -18.5s41.833 -4.5 64.5 -4.5h6v-86h-325l-27 166h-10c-20.667 -38.667 -43.5 -70 -68.5 -94s-51.5 -42.833 -79.5 -56.5s-57.333 -23 -88 -28s-62.667 -7.5 -96 -7.5
c-54 0 -102 7.66699 -144 23s-77.333 39.333 -106 72s-50.5 74.334 -65.5 125.001s-22.5 111 -22.5 181v491c0 30 -4.5 54.167 -13.5 72.5s-21.167 32.5 -36.5 42.5s-33.166 16.667 -53.499 20s-41.833 5 -64.5 5h-6v86h367v-707c0 -44.667 3.5 -84.334 10.5 -119.001
s18.667 -64 35 -88s38.333 -42.167 66 -54.5s62.167 -18.5 103.5 -18.5c45.333 0 84.166 8 116.499 24s59 38.5 80 67.5s36.5 63.833 46.5 104.5s15 85.667 15 135v422c0 32 -4.5 57.833 -13.5 77.5s-21 34.667 -36 45s-32.667 17.166 -53 20.499s-42.166 5 -65.499 5h-6v86
h366v-875zM348 1409c0 21.333 2.66699 39.334 8 54.001s12.666 26.5 21.999 35.5s20.333 15.5 33 19.5s26.334 6 41.001 6s28.334 -2 41.001 -6s23.834 -10.5 33.501 -19.5s17.167 -20.833 22.5 -35.5s8 -32.667 8 -54c0 -20.667 -2.66699 -38.334 -8 -53.001
s-12.833 -26.667 -22.5 -36s-20.834 -16 -33.501 -20s-26.334 -6 -41.001 -6c-30 0 -54.833 8.66699 -74.5 26s-29.5 47 -29.5 89zM737 1409c0 21.333 2.66699 39.334 8 54.001s12.666 26.5 21.999 35.5s20.333 15.5 33 19.5s26.334 6 41.001 6s28.334 -2 41.001 -6
s23.834 -10.5 33.501 -19.5s17.167 -20.833 22.5 -35.5s8 -32.667 8 -54c0 -20.667 -2.66699 -38.334 -8 -53.001s-12.833 -26.667 -22.5 -36s-20.834 -16 -33.501 -20s-26.334 -6 -41.001 -6c-30 0 -54.833 8.66699 -74.5 26s-29.5 47 -29.5 89z" />
    <glyph glyph-name="yacute" unicode="&#xfd;" horiz-adv-x="1157" 
d="M1157 1098l-0.00195312 -85.999h-6c-20 0 -37.167 -2.16699 -51.5 -6.5s-27.333 -12.5 -39 -24.5s-22.5 -28.333 -32.5 -49s-21 -47.334 -33 -80.001l-311 -860c-24 -66 -46.667 -124 -68 -174s-43.666 -92.833 -66.999 -128.5s-48.833 -65.167 -76.5 -88.5
s-59.167 -42 -94.5 -56s-76 -23.667 -122 -29s-99.333 -8 -160 -8h-18v97c69.333 0 129 10.333 179 31s93.167 49 129.5 85s66.666 78.5 90.999 127.5s44.833 102.167 61.5 159.5l-379 895c-9.33301 21.333 -18.333 38.833 -27 52.5s-18.5 24.834 -29.5 33.501
s-23.667 14.667 -38 18s-31.5 5 -51.5 5h-6v86h492v-86h-6c-41.333 0 -72.166 -8 -92.499 -24s-30.5 -41 -30.5 -75c0 -11.333 1.16699 -22.833 3.5 -34.5s6.5 -25.167 12.5 -40.5l150 -365l29.5 -76.5c10.333 -27.667 20 -55 29 -82l24.5 -76.5
c7.33301 -24 12.333 -44.667 15 -62h6c7.33301 30 17.5 66.5 30.5 109.5s28.167 89.167 45.5 138.5l137 399c6 16.667 10.5 32.667 13.5 48s4.5 28.666 4.5 39.999c0 35.333 -11.167 61 -33.5 77s-56.166 24 -101.499 24h-6v86h426zM503.998 1268
c15.333 19.333 31.168 41.668 47.501 67.001s32.333 51.5 48 78.5l45 81c14.333 27 26.833 51.833 37.5 74.5h219v-21c-12.667 -18 -31.334 -40.5 -56.001 -67.5s-52 -55.167 -82 -84.5s-60.833 -57.833 -92.5 -85.5s-61.167 -50.834 -88.5 -69.501h-78v27z" />
    <glyph glyph-name="thorn" unicode="&#xfe;" horiz-adv-x="1257" 
d="M692 987c-53.333 0 -97.833 -8.83301 -133.5 -26.5s-64.167 -44.5 -85.5 -80.5s-36.5 -81.333 -45.5 -136s-13.5 -119 -13.5 -193c0 -71.333 4.5 -134.333 13.5 -189s24.333 -100.667 46 -138s50.334 -65.5 86.001 -84.5s80.5 -28.5 134.5 -28.5
c44.667 0 83 9.5 115 28.5s58.167 47.167 78.5 84.5s35.166 83.5 44.499 138.5s14 118.5 14 190.5c0 145.333 -19.667 254 -59 326s-104.333 108 -195 108zM1145 551c0 -98.667 -9.16113 -184.003 -27.4941 -256.003s-45.166 -131.333 -80.499 -178s-79 -81.167 -131 -103.5
s-111.667 -33.5 -179 -33.5c-39.333 0 -75 4.33301 -107 13s-60.833 21 -86.5 37s-48.334 35 -68.001 57s-36.834 46.333 -51.501 73h-8c1.33301 -35.333 2.66602 -68.333 3.99902 -99c0.666992 -13.333 1.16699 -26.666 1.5 -39.999s0.666016 -26 0.999023 -38
s0.666016 -22.833 0.999023 -32.5s0.5 -17.167 0.5 -22.5v-196c0 -30 4.5 -54.167 13.5 -72.5s21.167 -32.333 36.5 -42s33.166 -16 53.499 -19s41.833 -4.5 64.5 -4.5h6v-86h-551v86h16c22.667 0 44.334 1.66699 65.001 5s38.5 10.166 53.5 20.499s27 25.333 36 45
s13.5 45.5 13.5 77.5v1589c0 30 -4.5 54.167 -13.5 72.5s-21.167 32.5 -36.5 42.5s-33.166 16.5 -53.499 19.5s-41.833 4.5 -64.5 4.5h-16v86h377v-376c0 -23.333 -0.333008 -50.166 -1 -80.499s-1.66699 -59.5 -3 -87.5l-4 -99h8
c15.333 31.333 32.666 59.666 51.999 84.999s41.666 46.833 66.999 64.5s54 31.334 86 41.001s68 14.5 108 14.5c67.333 0 127 -11.167 179 -33.5s95.667 -56.666 131 -102.999s62.166 -105.166 80.499 -176.499s27.5 -156 27.5 -254z" />
    <glyph glyph-name="ydieresis" unicode="&#xff;" horiz-adv-x="1157" 
d="M1157 1098l-0.00195312 -85.999h-6c-20 0 -37.167 -2.16699 -51.5 -6.5s-27.333 -12.5 -39 -24.5s-22.5 -28.333 -32.5 -49s-21 -47.334 -33 -80.001l-311 -860c-24 -66 -46.667 -124 -68 -174s-43.666 -92.833 -66.999 -128.5s-48.833 -65.167 -76.5 -88.5
s-59.167 -42 -94.5 -56s-76 -23.667 -122 -29s-99.333 -8 -160 -8h-18v97c69.333 0 129 10.333 179 31s93.167 49 129.5 85s66.666 78.5 90.999 127.5s44.833 102.167 61.5 159.5l-379 895c-9.33301 21.333 -18.333 38.833 -27 52.5s-18.5 24.834 -29.5 33.501
s-23.667 14.667 -38 18s-31.5 5 -51.5 5h-6v86h492v-86h-6c-41.333 0 -72.166 -8 -92.499 -24s-30.5 -41 -30.5 -75c0 -11.333 1.16699 -22.833 3.5 -34.5s6.5 -25.167 12.5 -40.5l150 -365l29.5 -76.5c10.333 -27.667 20 -55 29 -82l24.5 -76.5
c7.33301 -24 12.333 -44.667 15 -62h6c7.33301 30 17.5 66.5 30.5 109.5s28.167 89.167 45.5 138.5l137 399c6 16.667 10.5 32.667 13.5 48s4.5 28.666 4.5 39.999c0 35.333 -11.167 61 -33.5 77s-56.166 24 -101.499 24h-6v86h426zM319.998 1409
c0 21.333 2.66699 39.334 8 54.001s12.666 26.5 21.999 35.5s20.333 15.5 33 19.5s26.334 6 41.001 6s28.334 -2 41.001 -6s23.834 -10.5 33.501 -19.5s17.167 -20.833 22.5 -35.5s8 -32.667 8 -54c0 -20.667 -2.66699 -38.334 -8 -53.001s-12.833 -26.667 -22.5 -36
s-20.834 -16 -33.501 -20s-26.334 -6 -41.001 -6c-30 0 -54.833 8.66699 -74.5 26s-29.5 47 -29.5 89zM708.998 1409c0 21.333 2.66699 39.334 8 54.001s12.666 26.5 21.999 35.5s20.333 15.5 33 19.5s26.334 6 41.001 6s28.334 -2 41.001 -6s23.834 -10.5 33.501 -19.5
s17.167 -20.833 22.5 -35.5s8 -32.667 8 -54c0 -20.667 -2.66699 -38.334 -8 -53.001s-12.833 -26.667 -22.5 -36s-20.834 -16 -33.501 -20s-26.334 -6 -41.001 -6c-30 0 -54.833 8.66699 -74.5 26s-29.5 47 -29.5 89z" />
    <glyph glyph-name="dotlessi" unicode="&#x131;" horiz-adv-x="655" 
d="M74 86c22.667 0 44.166 1.49902 64.499 4.49902s38.166 9.16699 53.499 18.5s27.5 23.166 36.5 41.499s13.5 42.5 13.5 72.5v649c0 30 -4.5 54.167 -13.5 72.5s-21.167 32.5 -36.5 42.5s-33.166 16.667 -53.499 20s-41.833 5 -64.5 5h-6v86h366v-865
c0 -32 4.5 -57.667 13.5 -77s21 -34.166 36 -44.499s32.833 -17.166 53.5 -20.499s42.334 -5 65.001 -5h27v-86h-582v86h27z" />
    <glyph glyph-name="circumflex" unicode="&#x2c6;" horiz-adv-x="1182" 
d="M289 1268l52.998 67l57.5 78.5c19 27 36.833 54 53.5 81s30.334 51.833 41.001 74.5h194c10.667 -22.667 24.334 -47.5 41.001 -74.5s34.5 -54 53.5 -81l57.5 -78.5l53 -67v-27h-80c-39.333 22.667 -78.666 50.834 -117.999 84.501s-74.333 66.834 -105 99.501
c-31.333 -32.667 -66.333 -65.834 -105 -99.501s-77.334 -61.834 -116.001 -84.501h-80v27z" />
    <glyph glyph-name="ring" unicode="&#x2da;" horiz-adv-x="682" 
d="M586 1444c0 -36.667 -6.33301 -68.834 -19 -96.501s-30.167 -50.834 -52.5 -69.501s-48.5 -32.834 -78.5 -42.501s-62 -14.5 -96 -14.5s-66 4.83301 -96 14.5s-56.167 23.834 -78.5 42.501s-39.833 41.834 -52.5 69.501s-19 59.834 -19 96.501c0 36 6.33301 68 19 96
s30.167 51.333 52.5 70s48.5 32.834 78.5 42.501s62 14.5 96 14.5s66 -4.83301 96 -14.5s56.167 -23.834 78.5 -42.501s39.833 -42 52.5 -70s19 -60 19 -96zM475 1444c0 22 -3.5 40.833 -10.5 56.5s-16.667 28.334 -29 38.001s-26.666 16.834 -42.999 21.501
s-33.833 7 -52.5 7s-36.167 -2.33301 -52.5 -7s-30.666 -11.834 -42.999 -21.501s-22 -22.334 -29 -38.001s-10.5 -34.5 -10.5 -56.5s3.5 -40.833 10.5 -56.5s16.667 -28.334 29 -38.001s26.666 -16.834 42.999 -21.501s33.833 -7 52.5 -7s36.167 2.33301 52.5 7
s30.666 11.834 42.999 21.501s22 22.334 29 38.001s10.5 34.5 10.5 56.5z" />
    <glyph glyph-name="tilde" unicode="&#x2dc;" horiz-adv-x="1182" 
d="M762 1374c20 0 36.168 2.99902 48.501 8.99902s22 14.167 29 24.5s12 22 15 35s5.5 26.5 7.5 40.5h92c-2 -31.333 -7.5 -61.5 -16.5 -90.5s-22.167 -54.833 -39.5 -77.5s-39 -40.667 -65 -54s-57.333 -20 -94 -20s-69.834 6.66699 -99.501 20
s-57.334 28.166 -83.001 44.499l-72 44.5c-22.333 13.333 -44.5 20 -66.5 20c-20.667 0 -37 -3 -49 -9s-21.5 -14 -28.5 -24s-12.167 -21.5 -15.5 -34.5s-6 -26.5 -8 -40.5h-92c2 31.333 7.5 61.333 16.5 90s22.333 54.334 40 77.001s39.667 40.667 66 54s57.833 20 94.5 20
s69.834 -6.66699 99.501 -20s57.334 -28.166 83.001 -44.499l72 -44.5c22.333 -13.333 44.166 -20 65.499 -20z" />
    <glyph glyph-name="endash" unicode="&#x2013;" horiz-adv-x="1024" 
d="M1034 489h-1044v121h1044v-121z" />
    <glyph glyph-name="emdash" unicode="&#x2014;" horiz-adv-x="2048" 
d="M2058 489h-2068v121h2068v-121z" />
    <glyph glyph-name="quoteleft" unicode="&#x2018;" horiz-adv-x="512" 
d="M115 1063c0 43.333 6 85.332 18 125.999s31.5 78.334 58.5 113.001s61.833 65.834 104.5 93.501s94.334 50.5 155.001 68.5v-86c-67.333 -21.333 -116.666 -47.333 -147.999 -78s-47 -66 -47 -106c0 -13.333 3.66699 -24.5 11 -33.5s16.666 -17 27.999 -24
s23.333 -13.833 36 -20.5s24.667 -14.667 36 -24s20.666 -20.833 27.999 -34.5s11 -30.834 11 -51.501c0 -39.333 -12.833 -69.333 -38.5 -90s-57.5 -31 -95.5 -31c-20.667 0 -40.5 3.83301 -59.5 11.5s-35.833 19 -50.5 34s-26.167 33.667 -34.5 56
s-12.5 47.833 -12.5 76.5z" />
    <glyph glyph-name="quoteright" unicode="&#x2019;" horiz-adv-x="512" 
d="M397 1284c0 -43.333 -6.00293 -85.332 -18.0029 -125.999s-31.5 -78.334 -58.5 -113.001s-61.667 -65.834 -104 -93.501s-94.166 -50.5 -155.499 -68.5v86c67.333 21.333 116.666 47.333 147.999 78s47 66 47 106c0 13.333 -3.66699 24.5 -11 33.5s-16.666 17 -27.999 24
s-23.333 13.833 -36 20.5s-24.667 14.667 -36 24s-20.666 20.833 -27.999 34.5s-11 30.834 -11 51.501c0 39.333 12.833 69.333 38.5 90s57.5 31 95.5 31c21.333 0 41.333 -3.83301 60 -11.5s35.334 -19 50.001 -34s26.167 -33.667 34.5 -56s12.5 -47.833 12.5 -76.5z" />
    <glyph glyph-name="quotesinglbase" unicode="&#x201a;" horiz-adv-x="512" 
d="M397 86c0 -43.333 -6.00293 -85.332 -18.0029 -125.999s-31.5 -78.334 -58.5 -113.001s-61.667 -65.834 -104 -93.501s-94.166 -50.5 -155.499 -68.5v86c67.333 21.333 116.666 47.333 147.999 78s47 66 47 106c0 13.333 -3.66699 24.5 -11 33.5s-16.666 17 -27.999 24
s-23.333 13.833 -36 20.5s-24.667 14.667 -36 24s-20.666 20.833 -27.999 34.5s-11 30.834 -11 51.501c0 39.333 12.833 69.333 38.5 90s57.5 31 95.5 31c21.333 0 41.333 -3.83301 60 -11.5s35.334 -19 50.001 -34s26.167 -33.667 34.5 -56s12.5 -47.833 12.5 -76.5z" />
    <glyph glyph-name="quotedblleft" unicode="&#x201c;" horiz-adv-x="922" 
d="M524 1063c0 43.333 5.99805 85.332 17.998 125.999s31.5 78.334 58.5 113.001s61.833 65.834 104.5 93.501s94.334 50.5 155.001 68.5v-86c-66.667 -21.333 -115.667 -47.333 -147 -78s-47 -66 -47 -106c0 -13.333 3.66699 -24.5 11 -33.5s16.5 -17 27.5 -24
s23 -13.833 36 -20.5s25 -14.667 36 -24s20.167 -20.833 27.5 -34.5s11 -30.834 11 -51.501c0 -39.333 -12.667 -69.333 -38 -90s-57 -31 -95 -31c-20.667 0 -40.667 3.83301 -60 11.5s-36.166 19 -50.499 34s-25.833 33.667 -34.5 56s-13 47.833 -13 76.5zM114.998 1063
c0 43.333 6 85.332 18 125.999s31.5 78.334 58.5 113.001s61.833 65.834 104.5 93.501s94.334 50.5 155.001 68.5v-86c-67.333 -21.333 -116.666 -47.333 -147.999 -78s-47 -66 -47 -106c0 -13.333 3.66699 -24.5 11 -33.5s16.666 -17 27.999 -24s23.333 -13.833 36 -20.5
s24.667 -14.667 36 -24s20.666 -20.833 27.999 -34.5s11 -30.834 11 -51.501c0 -39.333 -12.833 -69.333 -38.5 -90s-57.5 -31 -95.5 -31c-20.667 0 -40.5 3.83301 -59.5 11.5s-35.833 19 -50.5 34s-26.167 33.667 -34.5 56s-12.5 47.833 -12.5 76.5z" />
    <glyph glyph-name="quotedblright" unicode="&#x201d;" horiz-adv-x="922" 
d="M397 1284c0 -43.333 -6.00293 -85.332 -18.0029 -125.999s-31.5 -78.334 -58.5 -113.001s-61.667 -65.834 -104 -93.501s-94.166 -50.5 -155.499 -68.5v86c67.333 21.333 116.666 47.333 147.999 78s47 66 47 106c0 13.333 -3.66699 24.5 -11 33.5s-16.666 17 -27.999 24
s-23.333 13.833 -36 20.5s-24.667 14.667 -36 24s-20.666 20.833 -27.999 34.5s-11 30.834 -11 51.501c0 39.333 12.833 69.333 38.5 90s57.5 31 95.5 31c21.333 0 41.333 -3.83301 60 -11.5s35.334 -19 50.001 -34s26.167 -33.667 34.5 -56s12.5 -47.833 12.5 -76.5z
M806.997 1284c0 -43.333 -6.00391 -85.332 -18.0039 -125.999s-31.5 -78.334 -58.5 -113.001s-61.667 -65.834 -104 -93.501s-94.166 -50.5 -155.499 -68.5v86c66.667 21.333 115.834 47.333 147.501 78s47.5 66 47.5 106c0 13.333 -3.66699 24.5 -11 33.5
s-16.666 17 -27.999 24s-23.333 13.833 -36 20.5s-24.667 14.667 -36 24s-20.666 20.833 -27.999 34.5s-11 30.834 -11 51.501c0 39.333 12.667 69.333 38 90s57 31 95 31c21.333 0 41.5 -3.83301 60.5 -11.5s35.667 -19 50 -34s25.833 -33.667 34.5 -56
s13 -47.833 13 -76.5z" />
    <glyph glyph-name="quotedblbase" unicode="&#x201e;" horiz-adv-x="922" 
d="M397 86c0 -43.333 -6.00293 -85.332 -18.0029 -125.999s-31.5 -78.334 -58.5 -113.001s-61.667 -65.834 -104 -93.501s-94.166 -50.5 -155.499 -68.5v86c67.333 21.333 116.666 47.333 147.999 78s47 66 47 106c0 13.333 -3.66699 24.5 -11 33.5s-16.666 17 -27.999 24
s-23.333 13.833 -36 20.5s-24.667 14.667 -36 24s-20.666 20.833 -27.999 34.5s-11 30.834 -11 51.501c0 39.333 12.833 69.333 38.5 90s57.5 31 95.5 31c21.333 0 41.333 -3.83301 60 -11.5s35.334 -19 50.001 -34s26.167 -33.667 34.5 -56s12.5 -47.833 12.5 -76.5z
M806.997 86.001c0 -43.333 -6.00391 -85.332 -18.0039 -125.999s-31.5 -78.334 -58.5 -113.001s-61.667 -65.834 -104 -93.501s-94.166 -50.5 -155.499 -68.5v86c66.667 21.333 115.834 47.333 147.501 78s47.5 66 47.5 106c0 13.333 -3.66699 24.5 -11 33.5
s-16.666 17 -27.999 24s-23.333 13.833 -36 20.5s-24.667 14.667 -36 24s-20.666 20.833 -27.999 34.5s-11 30.834 -11 51.501c0 39.333 12.667 69.333 38 90s57 31 95 31c21.333 0 41.5 -3.83301 60.5 -11.5s35.667 -19 50 -34s25.833 -33.667 34.5 -56
s13 -47.833 13 -76.5z" />
    <glyph glyph-name="bullet" unicode="&#x2022;" horiz-adv-x="741" 
d="M100 729c0 56 6.83301 103 20.5 141s32.5 68.5 56.5 91.5s52.667 39.5 86 49.5s69.333 15 108 15c37.333 0 72.333 -5 105 -15s61.334 -26.5 86.001 -49.5s44 -53.5 58 -91.5s21 -85 21 -141s-7 -102.833 -21 -140.5s-33.333 -68.167 -58 -91.5s-53.334 -40 -86.001 -50
s-67.667 -15 -105 -15c-38.667 0 -74.667 5 -108 15s-62 26.667 -86 50s-42.833 53.833 -56.5 91.5s-20.5 84.5 -20.5 140.5z" />
    <glyph glyph-name="guilsinglleft" unicode="&#x2039;" horiz-adv-x="682" 
d="M133 586l313 356h103l-207 -389l207 -389h-103l-313 356v66z" />
    <glyph glyph-name="guilsinglright" unicode="&#x203a;" horiz-adv-x="682" 
d="M551 520l-313 -356h-103l207 389l-207 389h103l313 -356v-66z" />
    <glyph glyph-name="fraction" unicode="&#x2044;" horiz-adv-x="127" 
d="M-233 0h-136l731 1462h134z" />
    <glyph glyph-name=".null" horiz-adv-x="0" 
 />
    <glyph glyph-name="nonmarkingreturn" horiz-adv-x="2048" 
 />
    <glyph glyph-name="foursuperior" horiz-adv-x="819" 
d="M580 848v-113c0 -17.333 2.33301 -31.166 7 -41.499s11 -18.166 19 -23.499s17.167 -8.83301 27.5 -10.5s21.166 -2.5 32.499 -2.5h41v-69h-451v69h57c11.333 0 22 0.833008 32 2.5s18.833 5.16699 26.5 10.5s13.834 13.166 18.501 23.499s7 24.166 7 41.499v113h-364v61
l383 564h164v-537h196v-88h-196zM397 1167c0 21.333 1 45.666 3 72.999s4.66699 53.666 8 78.999c-5.33301 -11.333 -11 -22.666 -17 -33.999s-10.667 -19.666 -14 -24.999l-223 -324h243v231z" />
    </font>
</defs>
</svg>
